Личное / Personal Effects (Дэвид Холландер / David Hollander) [2008, США, драма, BDRip] MVO (R5)

 
Автор Сообщение

painkiller ®

Стаж: 2 года 3 месяца

Сообщений: 582



Награды: Нет

Торрент-статистика

Создавать темы 15-Авг-2014 01:09

[Цитировать]

Личное / Personal Effects
Страна: США
Жанр: драма
Год выпуска: 2008
Продолжительность: 01:50:16
Перевод: Профессиональный (многоголосый закадровый) Лицензия R5
Cубтитры: нет
Режиссер: Дэвид Холландер / David Hollander
В ролях: Мишель Пфайффер, Эштон Кутчер, Кэти Бейтс, Спенсер Хадсон, Джон Манн, Дэвид Льюис, Роб ЛаБелль, Алекс Паунович, Брайан Маркинсон, Сара Линд
Описание: Уолтер Уэйкфилд переезжает в маленький городок в поисках мести за смерть сестры, где влюбляется в женщину Линду, которая гораздо старше его. На душе у нее тоже имеются похожие шрамы, она хочет отомстить за смерть своего мужа…
Доп. информация:
Качество видео: BDRip | ZtaZ/1080p BD-Remux
Формат видео: AVI
Видео: 720x400 (1.80:1), 23.976 fps, XviD build 73 ~1435 kbps avg, 0.21 bit/pixel
Аудио: 48 kHz, AC3 Dolby Digital, 3/2 (L,C,R,l,r) + LFE ch, ~448 kbps

MediaInfo

Общее
Полное имя : C:\Documents and Settings\Пользователь\Рабочий стол\Торрентс.ру\Personal.Effects.2008.BDRip.MVO_by_LBS.avi
Формат : AVI
Формат/Информация : Audio Video Interleave
Размер файла : 1,46 Гбайт
Продолжительность : 1 ч. 50 м.
Общий поток : 1893 Кбит/сек
Режиссёр : Last Boy Scout
Программа кодирования : VirtualDubMod 1.5.10.3 | www.virtualdub-fr.org || (build 2550/release)
Правообладатель : torrentfilm.net 28.01.2014
Примечание : BDRip MVO (R5)
Видео
Идентификатор : 0
Формат : MPEG-4 Visual
Профиль формата : Advanced Simple@L5
Параметр BVOP формата : 1
Параметр QPel формата : Нет
Параметр GMC формата : Без точки перехода
Параметр матрицы формата : Выборочная
Идентификатор кодека : XVID
Идентификатор кодека/Подсказка : XviD
Продолжительность : 1 ч. 50 м.
Битрейт : 1435 Кбит/сек
Ширина : 720 пикселей
Высота : 400 пикселей
Соотношение сторон : 16:9
Частота кадров : 23,976 кадра/сек
Цветовое пространство : YUV
Субдискретизация насыщенности : 4:2:0
Битовая глубина : 8 бит
Тип развёртки : Прогрессивная
Метод сжатия : С потерями
Бит/(Пиксели*Кадры) : 0.208
Размер потока : 1,11 Гбайт (76%)
Библиотека кодирования : XviD 73
Аудио
Идентификатор : 1
Формат : AC-3
Формат/Информация : Audio Coding 3
Расширение режима : CM (complete main)
Параметр Endianness формата : Big
Идентификатор кодека : 2000
Продолжительность : 1 ч. 50 м.
Вид битрейта : Постоянный
Битрейт : 448 Кбит/сек
Каналы : 6 каналов
Расположение каналов : Front: L C R, Side: L R, LFE
Частота : 48,0 КГц
Битовая глубина : 16 бит
Метод сжатия : С потерями
Размер потока : 353 Мбайт (24%)
Выравнивание : Разделение по промежуткам
Продолжительность промежутка : 42 мс. (1,00 видеокадр)
Время предзагрузки промежутка : 500 мс.

Скриншоты

Сравнение

1. http://torrentfilm.net/forum/viewtopic.php?t=2286316
Не для поглощения: другой перевод, а именно двухголосый-
-
-2. http://torrentfilm.net/forum/viewtopic.php?t=1740253
Не для поглощения: перевод тот же, что и в п.1 - двухголосый-
-
-3. http://torrentfilm.net/forum/viewtopic.php?t=2933800
http://screenshotcomparison.com/comparison/59748/picture:2
Перевод тот же
[Профиль] [ЛС]

Создавать темы 06-Авг-2015 23:11 (спустя 11 месяцев 22 дня)

Топик был перенесен из форума Фильмы до 2014 года в форум Фильмы до 2012 года
sergej644
 

Создавать темы 12-Июн-2016 08:51 (спустя 1 год 9 месяцев)

Топик был перенесен из форума Фильмы 2011 года в форум Фильмы 2006-2008 года
Russian Mafia
 
Кто просматривает тему:

Форум Тема Автор Размер
Pop (Pop,Pop-Rock)Юлия Савичева - Личное (2014) MP3, 320 kbps sergej644 78 MB
Chanson (Шансон) VA - Рюмочка cтоличной душевно по-русски (2015) MP3 BOSS 675 MB
Chanson (Шансон) VA - Рюмочка cтоличной душевно по-русски (выпуск 2) (2015) MP3 BOSS 690 MB
XXXI Летние Олимпийские игры. Рио-де-Жанейро 2016 (Бразилия) XXXI Летние Олимпийские Игры. Рио-де-Жанейро (Бразилия). Фехтование. Женщины. Рапира. Личное первенство [10.08] (2016) IPTVRip-AVC ODESSA 2.16 GB
XXXI Летние Олимпийские игры. Рио-де-Жанейро 2016 (Бразилия) XXXI Летние Олимпийские Игры. Рио-де-Жанейро (Бразилия). Фехтование. Мужчины. Сабля. Личное первенство [10.08] (2016) IPTVRip-AVC ODESSA 2.06 GB
XXXI Летние Олимпийские игры. Рио-де-Жанейро 2016 (Бразилия) XXXI Летние Олимпийские Игры. Рио-де-Жанейро (Бразилия). Художественная гимнастика. Личное первенство. Квалификация [19.08] (2016) IPTVRip-AVC достали все 7.48 GB
Разная литература ЕГЭ. 50 сочинений на отлично. Допуск к ЕГЭ (2017) PDF достали все 11 MB
Отечественные cериалы Личное дело (Судья) [01-60 из 60] (2014) WEB-DL 1080p достали все 42.39 GB
Показать сообщения:    

Текущее время: Сегодня 08:51

Часовой пояс: GMT



Вы не можете начинать темы
Вы не можете отвечать на сообщения
Вы не можете редактировать свои сообщения
Вы не можете удалять свои сообщения
Вы не можете голосовать в опросах
Вы не можете прикреплять файлы к сообщениям
Вы не можете скачивать файлы