Личное дело майора Баранова (Роман Просвирнин) [2012, Россия, криминальная комедия, HDTV 1080i]

 
Автор Сообщение

TorrentFilm ®

Пол:

Стаж: 2 года

Сообщений: 7741



Награды: Нет

Торрент-статистика

Создавать темы 02-Янв-2016 00:02

[Цитировать]

Личное дело майора Баранова
Жанр: криминальная комедия
Год выпуска: 2012
Продолжительность: 01:30:00
Режиссёр: Роман Просвирнин
В ролях: Алексей Макаров, Мария Миронова, Максим Юдин, Леонид Громов, Дмитрий Зеничев, Сергей Гусинский, Нина Есина, Валерий Афанасьев, Андрей Селиванов, Татьяна Кречетова, Ефим Банчик, Михаил Богдасаров, Татьяна Кузнецова, Дмитрий Супонин, Алена Криг, Владимир Терещенко, Николай Сирин, Сергей Мезенцев, Светлана Рубан, Елена Коровчук, Сергей Баровский, Станислав Хапсаев, Матвей Просвирнин, Екатерина Берлинская, Кристина Пакарина, Наталья Беспалова, Анна Ровинская, Эдуард Чемодаков, Дмитрий Зайцев
Описание: Майор Баранов, профессионал с непростым характером, за излишнее рвение отстранен от службы и мается на мелких подработках. Неожиданно ему предлагают поучаствовать в операции по разоблачению опасного преступника, сбежавшего из тюрьмы. И всё бы хорошо, но в деле оказывается слишком много "подводных камней": майору придётся ехать в маленький городок, устроиться воспитателем в детский сад, да еще и вести расследование под руководством женщины…
Доп. информация: Запись чистая. Без посторонних надписей. Выкладывается, как есть.
Релиз -
Семпл: http://multi-up.com/835454
Качество видео: HDTV 1080i
Формат видео: MPEG-TS
Видео: AVC, 1920x1080 (16:9), 25 fps, 7853 Kbps, 0.151 bit/pixel
Аудио: MPEG Audio, 48 kHz, stereo, 192 Kbps

MediaInfo

GeneralID : 1 (0x1)Complete name : Личное дело майора Баранова (2012, Криминальная комедия, HDTV) (MYDIMKA).tsFormat : MPEG-TSFile size : 5.68 GiBDuration : 1h 36mnOverall bit rate mode : VariableOverall bit rate : 8 446 Kbps
VideoID : 2911 (0xB5F)Menu ID : 1 (0x1)Format : AVCFormat/Info : Advanced Video CodecFormat profile : High@L4.0Format settings, CABAC : YesFormat settings, ReFrames : 4 framesCodec ID : 27Duration : 1h 36mnBit rate : 7 834 KbpsWidth : 1 920 pixelsHeight : 1 080 pixelsDisplay aspect ratio : 16:9Frame rate : 25.000 fpsColor space : YUVChroma subsampling : 4:2:0Bit depth : 8 bitsScan type : MBAFFBits/(Pixel*Frame) : 0.151Stream size : 5.27 GiB (93%)
AudioID : 2912 (0xB60)Menu ID : 1 (0x1)Format : MPEG AudioFormat version : Version 1Format profile : Layer 2Codec ID : 3Duration : 1h 36mnBit rate mode : ConstantBit rate : 192 KbpsChannel(s) : 2 channelsSampling rate : 48.0 KHzCompression mode : LossyStream size : 132 MiB (2%)Language : Russian

Скриншот c названием фильма

Скриншоты


[Профиль] [ЛС]
Кто просматривает тему:

Форум Тема Автор Размер
Pop (Pop,Pop-Rock)Юлия Савичева - Личное (2014) MP3, 320 kbps sergej644 78 MB
Chanson (Шансон) VA - Рюмочка cтоличной душевно по-русски (2015) MP3 BOSS 675 MB
Chanson (Шансон) VA - Рюмочка cтоличной душевно по-русски (выпуск 2) (2015) MP3 BOSS 690 MB
XXXI Летние Олимпийские игры. Рио-де-Жанейро 2016 (Бразилия) XXXI Летние Олимпийские Игры. Рио-де-Жанейро (Бразилия). Фехтование. Женщины. Рапира. Личное первенство [10.08] (2016) IPTVRip-AVC ODESSA 2.16 GB
XXXI Летние Олимпийские игры. Рио-де-Жанейро 2016 (Бразилия) XXXI Летние Олимпийские Игры. Рио-де-Жанейро (Бразилия). Фехтование. Мужчины. Сабля. Личное первенство [10.08] (2016) IPTVRip-AVC ODESSA 2.06 GB
XXXI Летние Олимпийские игры. Рио-де-Жанейро 2016 (Бразилия) XXXI Летние Олимпийские Игры. Рио-де-Жанейро (Бразилия). Художественная гимнастика. Личное первенство. Квалификация [19.08] (2016) IPTVRip-AVC достали все 7.48 GB
Разная литература ЕГЭ. 50 сочинений на отлично. Допуск к ЕГЭ (2017) PDF достали все 11 MB
Фильмы 2006-2008 года Личное / Personal Effects (Дэвид Холландер / David Hollander) [2008, США, драма, BDRip] MVO (R5) painkiller 1.46 GB
Показать сообщения:    

Текущее время: Сегодня 14:28

Часовой пояс: GMT



Вы не можете начинать темы
Вы не можете отвечать на сообщения
Вы не можете редактировать свои сообщения
Вы не можете удалять свои сообщения
Вы не можете голосовать в опросах
Вы не можете прикреплять файлы к сообщениям
Вы не можете скачивать файлы