Лицо ангела / The Face of an Angel (2014) WEB-DLRip | P

 
Автор Сообщение

достали все ®

Пол:

Стаж: 1 год 8 месяцев

Сообщений: 6565



Награды: 12 (Подробнее)

Mega Releaser 3 (Количество: 1) Mega Seeder 5 (Количество: 1) Mega Seeder 4 (Количество: 1)
Торрент-статистика

Создавать темы 11-Июл-2015 11:44

[Цитировать]

Информация о фильме
Название: Лицо ангела
Оригинальное название: The Face of an Angel
Год выхода: 2014
Жанр: триллер
Режиссер: Майкл Уинтерботтом
В ролях: Кара Делевинь, Кейт Бекинсейл, Даниэль Брюль, Сара Стюарт, Ава Акрес, Люси Коху, Женевьев Гонт, Джон Хопкинс, Алистэр Петри, Сай Беннетт
О фильме: После прогремевшего на весь мир убийства молодой девушки, в итальянский город Сиена приезжает молодой режиссер для подготовки к съемкам фильма по мотивам преступления. Там он знакомится с американской журналисткой Симоной Форд, недавно написавшей об этом противоречивую книгу. В городе правят бал обезумевшие репортеры со всего мира, вываливающие на своих зрителей у телеэкранов груды «грязного белья» в погоне за кричащими заголовками. А об убитой девушке абсолютно забыли…

Выпущено: Великобритания, Италия, Испания / BBC Films, Cattleya, Multitrade, Revolution Films, Vedette Finance, Ypsilon Films
Продолжительность: 01:41:28
Озвучивание: Профессиональное (многоголосое) официальное
Файл
Формат: AVI (XviD)
Качество: WEB-DLRip
Видео: 825 kb/s, 640x272
Звук: AC3, 128 kb/s (2 ch)
Размер: 700 MB
Скачать: Сэмпл---

Media Info

General
Complete name : C:UsersuserDesktopL1co.4ng3la.2014.P.WEB-DLRip.700MB.avi
Format : AVI
Format/Info : Audio Video Interleave
File size : 699 MiB
Duration : 1h 41mn
Overall bit rate : 963 Kbps
Writing application : VirtualDubMod 1.5.10.2 (build 2540/release)
Writing library : VirtualDubMod build 2540/release
Video
ID : 0
Format : MPEG-4 Visual
Format profile : Advanced Simple@L5
Format settings, BVOP : 2
Format settings, QPel : No
Format settings, GMC : No warppoints
Format settings, Matrix : Default (H.263)
Muxing mode : Packed bitstream
Codec ID : XVID
Codec ID/Hint : XviD
Duration : 1h 41mn
Bit rate : 825 Kbps
Width : 640 pixels
Height : 272 pixels
Display aspect ratio : 2.35:1
Frame rate : 24.000 fps
Color space : YUV
Chroma subsampling : 4:2:0
Bit depth : 8 bits
Scan type : Progressive
Compression mode : Lossy
Bits/(Pixel*Frame) : 0.198
Stream size : 599 MiB (86%)
Writing library : XviD 66
Audio
ID : 1
Format : AC-3
Format/Info : Audio Coding 3
Mode extension : CM (complete main)
Format settings, Endianness : Big
Codec ID : 2000
Duration : 1h 41mn
Bit rate mode : Constant
Bit rate : 128 Kbps
Channel(s) : 2 channels
Channel positions : Front: L R
Sampling rate : 48.0 KHz
Bit depth : 16 bits
Compression mode : Lossy
Stream size : 92.9 MiB (13%)
Alignment : Split accross interleaves
Interleave, duration : 42 ms (1.00 video frame)
Interleave, preload duration : 500 ms
--- --- -

Скриншоты

-
[Профиль] [ЛС]
Кто просматривает тему:

Показать сообщения:    

Текущее время: Сегодня 12:32

Часовой пояс: GMT



Вы не можете начинать темы
Вы не можете отвечать на сообщения
Вы не можете редактировать свои сообщения
Вы не можете удалять свои сообщения
Вы не можете голосовать в опросах
Вы не можете прикреплять файлы к сообщениям
Вы не можете скачивать файлы