Лиса-строитель (Пантелеймон Сазонов) [1950 г., мультфильм, DVB-AVC]

 
Автор Сообщение

painkiller ®

Стаж: 2 года 3 месяца

Сообщений: 582



Награды: Нет

Торрент-статистика

Создавать темы 27-Авг-2014 15:30

[Цитировать]

Лиса-строитель
Жанр: мультфильм
Год выпуска: 1950
Продолжительность: 00:09:46
Режиссёр: Пантелеймон Сазонов
Описание: Лев, большой любитель кур, решил построить курятник и поручил это Лисе (по рекомендации Осла). Через оставленное отверстие Лиса каждый вечер наведывалась в новостройку. Лев обнаружил свою оплошность, когда кур в курятнике не осталось ...
Доп. информация: По басне И.А. Крылова

Релиз спутникового канала: "Перец"
Качество видео: DVB
Формат видео: MPEG-TS
Видео: MPEG4 Video (H264), 720x576@785x576 (4:3), анаморф, 25 fps, 4600 kbps
Аудио: MPEG Audio, 2 сh, 48 kHz, 192 kbps

MediaInfo

General
ID : 1
Complete name : D:\Лиса-строитель. (1950)_DVB by SLuMeP.ts
Format : MPEG-TS
File size : 355 MiB
Duration : 9mn 46s
Overall bit rate : 5 075 Kbps
Video
ID : 1521 (0x5F1)
Menu ID : 1 (0x1)
Format : AVC
Format/Info : Advanced Video Codec
Format profile : Main@L3.0
Format settings, CABAC : Yes
Format settings, ReFrames : 3 frames
Format settings, GOP : M=4, N=59
Codec ID : 27
Duration : 9mn 46s
Bit rate : 4 631 Kbps
Width : 720 pixels
Height : 576 pixels
Display aspect ratio : 4:3
Frame rate : 25.000 fps
Standard : Component
Color space : YUV
Chroma subsampling : 4:2:0
Bit depth : 8 bits
Scan type : Interlaced
Bits/(Pixel*Frame) : 0.447
Stream size : 324 MiB (91%)
Color primaries : BT.470-6 System B, BT.470-6 System G, BT.601-6 625, BT.1358 625, BT.1700 625 PAL, BT.1700 625 SECAM
Transfer characteristics : BT.470-6 System B, BT.470-6 System G
Matrix coefficients : BT.470-6 System B, BT.470-6 System G, BT.601-6 625, BT.1358 625, BT.1700 625 PAL, BT.1700 625 SECAM, IEC 61966-2-4 601
Audio
ID : 1522 (0x5F2)
Menu ID : 1 (0x1)
Format : MPEG Audio
Format version : Version 1
Format profile : Layer 2
Codec ID : 3
Duration : 9mn 46s
Bit rate mode : Constant
Bit rate : 192 Kbps
Channel(s) : 2 channels
Sampling rate : 48.0 KHz
Video delay : -40ms
Stream size : 13.4 MiB (4%)
Language : Russian

Скриншоты

[Профиль] [ЛС]
Кто просматривает тему:

Показать сообщения:    

Текущее время: Сегодня 07:06

Часовой пояс: GMT



Вы не можете начинать темы
Вы не можете отвечать на сообщения
Вы не можете редактировать свои сообщения
Вы не можете удалять свои сообщения
Вы не можете голосовать в опросах
Вы не можете прикреплять файлы к сообщениям
Вы не можете скачивать файлы