Лиса и птица (Дамир Салимов) [1971, Узбекфильм, рисованная анимация, TeleSynch]

 
Автор Сообщение

TorrentFilm ®

Пол:

Стаж: 2 года

Сообщений: 7741



Награды: Нет

Торрент-статистика

Создавать темы 01-Янв-2016 00:17

[Цитировать]

Лиса и птица
Страна: СССР
Жанр: рисованная анимация
Продолжительность: 00:06:32
Год выпуска: 1971
Русские субтитры: нет
Режиссёр: Дамир Салимов
Описание: Однажды Лисица решила полакомиться маленькими птенцами. Но Птица-мать хитростью обманула Лису и спасла птенцов. В следующий раз Лиса привела с собой Волка и Пса. Птица опять обманула хищников, и отомстила им.
Доп. информация: Фильм оцифрован с киноплёнки 16-мм из личной коллекции. Качество изображения очень низкое, так как плёнка сильно повреждена, но другой версии этого мультфильма я в сети не нашёл.
Качество: TeleSynch
Формат: MPG
Видео: 720x576 (4:3), 25.000 fps, MPEG-2 Video, ~7453 Kbps, 0.719 bits/pixel
Аудио: 48.0 KHz, AC3, 2 ch (Dual mono), 256 Kbps
Субтитры: отсутствуют

Подробные технические данные

GeneralComplete name : Лиса и птица (Узбекфильм) 1971.mpgFormat : MPEG-PSFile size : 367 MiBDuration : 6mn 31sOverall bit rate mode : VariableOverall bit rate : 7 865 Kbps
VideoID : 224 (0xE0)Format : MPEG VideoFormat version : Version 2Format profile : Main@MainFormat settings, BVOP : YesFormat settings, Matrix : DefaultFormat settings, GOP : VariableDuration : 6mn 31sBit rate mode : VariableBit rate : 7 500 KbpsWidth : 720 pixelsHeight : 576 pixelsDisplay aspect ratio : 4:3Frame rate : 25.000 fpsStandard : PALColor space : YUVChroma subsampling : 4:2:0Bit depth : 8 bitsScan type : InterlacedScan order : Top Field FirstCompression mode : LossyBits/(Pixel*Frame) : 0.723Time code of first frame : 00:00:00:00Time code source : Group of pictures headerStream size : 348 MiB (95%)Color primaries : BT.601 PALTransfer characteristics : BT.470 System B, BT.470 System GMatrix coefficients : BT.601
AudioID : 189 (0xBD)-128 (0x80)Format : AC-3Format/Info : Audio Coding 3Mode extension : CM (complete main)Format settings, Endianness : BigMuxing mode : DVD-VideoDuration : 6mn 31sBit rate mode : ConstantBit rate : 256 KbpsChannel(s) : 2 channelsChannel positions : Front: L RSampling rate : 48.0 KHzBit depth : 16 bitsCompression mode : LossyStream size : 12.0 MiB (3%)

Скриншоты

[Профиль] [ЛС]
Кто просматривает тему:

Показать сообщения:    

Текущее время: Сегодня 04:48

Часовой пояс: GMT



Вы не можете начинать темы
Вы не можете отвечать на сообщения
Вы не можете редактировать свои сообщения
Вы не можете удалять свои сообщения
Вы не можете голосовать в опросах
Вы не можете прикреплять файлы к сообщениям
Вы не можете скачивать файлы