Лиса и журавль (Владимир Петкевич) [2010, Рисованный мультфильм, SATRip]

 
Автор Сообщение

painkiller ®

Стаж: 2 года 3 месяца

Сообщений: 582



Награды: Нет

Торрент-статистика

Создавать темы 27-Авг-2014 19:33

[Цитировать]

Лиса и журавль
Страна: Беларусь
Жанр: Рисованный мультфильм
Продолжительность: 00:12:37
Год выпуска: 2010
Русские субтитры: нет
Режиссёр: Владимир Петкевич
Роли озвучивали: Александр Ткачёнок, Екатерина Шатрова
Описание: По мотивам народной сказки. Повстречались как-то Лиса и Журавль. И решили они жить вместе. Но ничего у них из этого не получилось - слишком разными они оказались существами.
Доп. информация: «Беларусьфильм»
Сценарий: Д.Якутович
Оператор:А.Бетев
Художник-постановщик:А.Емельянова
Композитор:С.Петкевич
Исходник для рипа предоставлен ItarTass
Рип by Lika1603
Работа со звуком dvdss
Качество: SATRip
Формат: AVI
Видео: 704x528 (1.33:1), 25 fps, XviD build 50 ~1997 kbps avg, 0.22 bit/pixel
Аудио: 48 kHz, AC3 Dolby Digital, 2/0 (L,R) ch, ~192.00 kbps avg
Субтитры: нет

Подробные технические данные

Format : AVIFormat/Info : Audio Video InterleaveFile size : 199 MiBDuration : 12mn 37sOverall bit rate : 2 199 KbpsWriting application : VirtualDubModRus 1.5.10.2 (build 2542/release)Writing library : VirtualDubMod build 2542/release
VideoID : 0Format : MPEG-4 VisualFormat profile : Simple@L3Format settings, BVOP : NoFormat settings, QPel : NoFormat settings, GMC : No warppointsFormat settings, Matrix : Default (H.263)Codec ID : XVIDCodec ID/Hint : XviDDuration : 12mn 37sBit rate : 1 998 KbpsWidth : 704 pixelsHeight : 528 pixelsDisplay aspect ratio : 4:3Frame rate : 25.000 fpsColor space : YUVChroma subsampling : 4:2:0Bit depth : 8 bitsScan type : ProgressiveCompression mode : LossyBits/(Pixel*Frame) : 0.215Stream size : 180 MiB (91%)Writing library : XviD 1.2.1 (UTC 2008-12-04)
AudioID : 1Format : AC-3Format/Info : Audio Coding 3Mode extension : CM (complete main)Format settings, Endianness : BigCodec ID : 2000Duration : 12mn 37sBit rate mode : ConstantBit rate : 192 KbpsChannel(s) : 2 channelsChannel positions : Front: L RSampling rate : 48.0 KHzBit depth : 16 bitsCompression mode : LossyStream size : 17.3 MiB (9%)Alignment : Split accross interleavesInterleave, duration : 40 ms (1.00 video frame)Interleave, preload duration : 500 ms

Скриншоты

[Профиль] [ЛС]
Кто просматривает тему:

Показать сообщения:    

Текущее время: Сегодня 13:52

Часовой пояс: GMT



Вы не можете начинать темы
Вы не можете отвечать на сообщения
Вы не можете редактировать свои сообщения
Вы не можете удалять свои сообщения
Вы не можете голосовать в опросах
Вы не можете прикреплять файлы к сообщениям
Вы не можете скачивать файлы