Линия паса / Линия прохода / Linha de Passe (Уолтер Саллес / Walter Salles, Даниэла Томас / Daniela Thomas) [2008, Бразилия, Драма, спорт, DVDRip] VO

 
Автор Сообщение

painkiller ®

Стаж: 2 года 3 месяца

Сообщений: 582



Награды: Нет

Торрент-статистика

Создавать темы 14-Авг-2014 13:00

[Цитировать]

Линия паса / Линия прохода / Linha de Passe- Страна: Бразилия
Жанр: Драма, спорт
Год выпуска: 2008
Продолжительность: 01:53:41-Перевод: Одноголосый закадровый
Cубтитры: нет-Режиссер: Уолтер Саллес / Walter Salles, Даниэла Томас / Daniela Thomas-В ролях: Сандра Корвелони, Жоан Балдассерини, Винициус де Оливейра, Жозе Жеральду Родригеш, Кайке, Жезуш Сантуш, Роберто Ауди, Дениза Вейнберг, Ана Луиза Гарритано, Серджио Мастропаскуа, Рената Новаес-Описание: Четыре брата из очень бедной семьи борются за место под солнцем... пытаются осуществить то, о чём всегда мечтали, стать футболистами. Это не просто фильм, это урок о моральных и этических дилеммах, с которыми ежедневно сталкиваются молодые люди бразильских окраин. Под кажущейся простотой и фрагментарной структурой прячется фильм отличный от Дневников мотоциклиста и Бразильского Централа, спродюсированных всё тем же Уолтером Сэллесом.-Sample | IMDB | КиноПоиск-Тип релиза: DVDRip
Формат видео: AVI-Видео: 704x384 (1.83:1), 23.976 fps, XviD build 50, 1640 kbps avg, 0.25 bit/pixel
Аудио: 48 kHz, AC3 Dolby Digital, 2/0 (L,R) ch, 192.00 kbps avg [Russian_VO]--

MediaInfo

General
Complete name : D:\Мои релизы\Linha De Passe_RG_All_Films.avi
Format : AVI
Format/Info : Audio Video Interleave
File size : 1.46 GiB
Duration : 1h 53mn
Overall bit rate : 1 842 Kbps
Writing application : VirtualDubMod 1.5.10.3 | www.virtualdub-fr.org || (build 2550/release)
Writing library : VirtualDubMod build 2550/release
Video
ID : 0
Format : MPEG-4 Visual
Format profile : Advanced Simple@L5
Format settings, BVOP : Yes
Format settings, QPel : No
Format settings, GMC : No warppoints
Format settings, Matrix : Custom
Codec ID : XVID
Codec ID/Hint : XviD
Duration : 1h 53mn
Bit rate : 1 641 Kbps
Width : 704 pixels
Height : 384 pixels
Display aspect ratio : 16:9
Frame rate : 23.976 fps
Color space : YUV
Chroma subsampling : 4:2:0
Bit depth : 8 bits
Scan type : Progressive
Compression mode : Lossy
Bits/(Pixel*Frame) : 0.253
Stream size : 1.30 GiB (89%)
Writing library : XviD 1.2.1 (UTC 2008-12-04)
Audio
ID : 1
Format : AC-3
Format/Info : Audio Coding 3
Mode extension : CM (complete main)
Codec ID : 2000
Duration : 1h 53mn
Bit rate mode : Constant
Bit rate : 192 Kbps
Channel(s) : 2 channels
Channel positions : Front: L R
Sampling rate : 48.0 KHz
Bit depth : 16 bits
Compression mode : Lossy
Stream size : 156 MiB (10%)
Alignment : Split accross interleaves
Interleave, duration : 42 ms (1.00 video frame)
Interleave, preload duration : 500 ms

Скриншоты

[Профиль] [ЛС]

Создавать темы 06-Авг-2015 23:14 (спустя 11 месяцев 23 дня)

Топик был перенесен из форума Фильмы до 2014 года в форум Фильмы до 2012 года
sergej644
 

Создавать темы 12-Июн-2016 08:51 (спустя 1 год 9 месяцев)

Топик был перенесен из форума Фильмы 2011 года в форум Фильмы 2006-2008 года
Russian Mafia
 
Показать сообщения:    

Текущее время: Сегодня 09:12

Часовой пояс: GMT



Вы не можете начинать темы
Вы не можете отвечать на сообщения
Вы не можете редактировать свои сообщения
Вы не можете удалять свои сообщения
Вы не можете голосовать в опросах
Вы не можете прикреплять файлы к сообщениям
Вы не можете скачивать файлы