Лила и Ева / Lila & Eve (2015) HDRip | L

 
Автор Сообщение

достали все ®

Пол:

Стаж: 1 год 8 месяцев

Сообщений: 6611



Награды: 12 (Подробнее)

Mega Releaser 3 (Количество: 1) Mega Seeder 5 (Количество: 1) Mega Seeder 2 (Количество: 1)
Торрент-статистика

Создавать темы 26-Сен-2015 08:07

[Цитировать]

Информация о фильме
Название: Лила и Ева
Оригинальное название: Lila & Eve
Год выхода: 2015
Жанр: триллер, драма
Режиссер: Чарльз Стоун III
В ролях:Дженнифер Лопез, Виола Дэвис, Ши Уигхэм, Амл Амин,Андре Ройо, Крис Чок, Джулиус Теннон, Миколь Уайт, Йолонда Росс, Уилл Бриттейн
О фильме: Две обезумевшие матери, чьи дети были застрелены, объединяются чтобы отомстить убийцам после того, как понимают, что местные власти не в состоянии принять необходимые меры…


Выпущено: США / A+E Studios, ChickFlick Productions, JuVee Productions, Lifetime Films
Продолжительность: 01:33:57
Перевод: Любительский (многоголосый) [Victory-Films]
Файл
Формат: AVI (XviD)
Качество: HDRip
Видео: 846 Kbps, 640x344
Аудио: AC-3, 192 Kbps, 2 ch
Размер: 700 MB
Скачать: Сэмпл-

Media Info

General
Complete name : Lila.And.Eve.2015.HDRip.700.avi
Format : AVI
Format/Info : Audio Video Interleave
File size : 704 MiB
Duration : 1h 33mn
Overall bit rate : 1 048 Kbps
Writing application : VirtualDubMod 1.5.10.3 | www.virtualdub-fr.org || (build 2550/release)
Writing library : VirtualDubMod build 2550/release
Video
ID : 0
Format : MPEG-4 Visual
Format profile : Advanced Simple@L5
Format settings, BVOP : 1
Format settings, QPel : No
Format settings, GMC : No warppoints
Format settings, Matrix : Default (H.263)
Codec ID : XVID
Codec ID/Hint : XviD
Duration : 1h 33mn
Bit rate : 846 Kbps
Width : 640 pixels
Height : 344 pixels
Display aspect ratio : 1.85:1
Frame rate : 23.976 fps
Color space : YUV
Chroma subsampling : 4:2:0
Bit depth : 8 bits
Scan type : Progressive
Compression mode : Lossy
Bits/(Pixel*Frame) : 0.160
Stream size : 569 MiB (81%)
Writing library : XviD 1.2.1 (UTC 2008-12-04)
Audio
ID : 1
Format : AC-3
Format/Info : Audio Coding 3
Mode extension : CM (complete main)
Format settings, Endianness : Big
Codec ID : 2000
Duration : 1h 33mn
Bit rate mode : Constant
Bit rate : 192 Kbps
Channel(s) : 2 channels
Channel positions : Front: L R
Sampling rate : 48.0 KHz
Compression mode : Lossy
Stream size : 129 MiB (18%)
Alignment : Aligned on interleaves
Interleave, duration : 42 ms (1.00 video frame)
Interleave, preload duration : 512 ms
- -

Скриншоты

-
[Профиль] [ЛС]
Кто просматривает тему:

Показать сообщения:    

Текущее время: Сегодня 13:03

Часовой пояс: GMT



Вы не можете начинать темы
Вы не можете отвечать на сообщения
Вы не можете редактировать свои сообщения
Вы не можете удалять свои сообщения
Вы не можете голосовать в опросах
Вы не можете прикреплять файлы к сообщениям
Вы не можете скачивать файлы