Лила и Ева / Lila & Eve (2015) BDRip 720p

 
Автор Сообщение

Russian Mafia ®

Пол:

Стаж: 1 год 8 месяцев

Сообщений: 4257



Награды: 10 (Подробнее)

Mega Seeder 1 (Количество: 1) Top Releaser 5 (Количество: 1) Mega Seeder 5 (Количество: 1)
Торрент-статистика

Создавать темы 25-Сен-2015 13:38

[Цитировать]

Информация о фильме
Название: Лила и Ева
Оригинальное название: Lila & Eve
Год выхода: 2015
Жанр: триллер, драма
Режиссер: Чарльз Стоун III
В ролях: Дженнифер Лопез, Виола Дэвис, Ши Уигхэм, Амл Амин,Андре Ройо, Крис Чок, Джулиус Теннон, Миколь Уайт, Йолонда Росс, Уилл Бриттейн
О фильме: Две обезумевшие матери, чьи дети были застрелены, объединяются чтобы отомстить убийцам после того, как понимают, что местные власти не в состоянии принять необходимые меры…

Выпущено: США / A+E Studios, ChickFlick Productions, JuVee Productions, Lifetime Films
Продолжительность: 01:33:57
Озвучивание: Любительское (многоголосое) [Victory-Films - Андрей Питерский, Камила Юнусова, Валентина Чеботкова], перевод [zahra, lext_2009, Trident]
Файл
Формат: MPEG-4 AVC
Качество: BDRip 720p
Видео: 5146 Кбит/с, 1280x688
Аудио: Русский (AC3, 2 ch, 192 Кбит/с), английский (DTS, 6 ch, 1510 Кбит/с)

Скриншоты

MediaInfo

File: D:ВидеоLila.And.Eve.2015.BDRip.720p.mkv
General
Unique ID : 181437884026167168111268029448124048919 (0x887FAA56F2C2273CA5E39D9731232617)
Complete name : D:ВидеоLila.And.Eve.2015.BDRip.720p.mkv
Format : Matroska
Format version : Version 4 / Version 2
File size : 4.49 GiB
Duration : 1h 33mn
Overall bit rate : 6 847 Kbps
Encoded date : UTC 2015-09-25 10:22:30
Writing application : mkvmerge v6.1.0 ('Old Devil') built on Mar 4 2013 09:10:42
Writing library : libebml v1.3.0 + libmatroska v1.4.0
Video
ID : 1
Format : AVC
Format/Info : Advanced Video Codec
Format profile : High@L4.1
Format settings, CABAC : Yes
Format settings, ReFrames : 5 frames
Codec ID : V_MPEG4/ISO/AVC
Duration : 1h 33mn
Bit rate : 5 146 Kbps
Width : 1 280 pixels
Height : 688 pixels
Display aspect ratio : 1.85:1
Frame rate mode : Constant
Frame rate : 23.976 fps
Color space : YUV
Chroma subsampling : 4:2:0
Bit depth : 8 bits
Scan type : Progressive
Bits/(Pixel*Frame) : 0.244
Stream size : 3.29 GiB (73%)
Writing library : x264 core 146 r2538 121396c
Encoding settings : cabac=1 / ref=5 / deblock=1:0:0 / analyse=0x3:0x133 / me=umh / subme=7 / psy=1 / psy_rd=1.00:0.00 / mixed_ref=1 / me_range=16 / chroma_me=1 / trellis=1 / 8x8dct=1 / cqm=0 / deadzone=21,11 / fast_pskip=0 / chroma_qp_offset=-2 / threads=18 / lookahead_threads=3 / sliced_threads=0 / nr=0 / decimate=1 / interlaced=0 / bluray_compat=0 / constrained_intra=0 / bframes=3 / b_pyramid=2 / b_adapt=1 / b_bias=0 / direct=1 / weightb=1 / open_gop=0 / weightp=2 / keyint=250 / keyint_min=23 / scenecut=40 / intra_refresh=0 / rc_lookahead=40 / rc=2pass / mbtree=1 / bitrate=5146 / ratetol=1.0 / qcomp=0.60 / qpmin=0 / qpmax=69 / qpstep=4 / cplxblur=20.0 / qblur=0.5 / ip_ratio=1.40 / aq=1:1.00
Language : English
Default : Yes
Forced : No
Audio #1
ID : 2
Format : AC-3
Format/Info : Audio Coding 3
Mode extension : CM (complete main)
Format settings, Endianness : Big
Codec ID : A_AC3
Duration : 1h 33mn
Bit rate mode : Constant
Bit rate : 192 Kbps
Channel(s) : 2 channels
Channel positions : Front: L R
Sampling rate : 48.0 KHz
Bit depth : 16 bits
Compression mode : Lossy
Stream size : 129 MiB (3%)
Title : Victory-Films
Language : Russian
Default : Yes
Forced : No
Audio #2
ID : 3
Format : DTS
Format/Info : Digital Theater Systems
Mode : 16
Format settings, Endianness : Big
Codec ID : A_DTS
Duration : 1h 33mn
Bit rate mode : Constant
Bit rate : 1 509 Kbps
Channel(s) : 6 channels
Channel positions : Front: L C R, Side: L R, LFE
Sampling rate : 48.0 KHz
Bit depth : 24 bits
Compression mode : Lossy
Stream size : 1 014 MiB (22%)
Language : English
Default : No
Forced : No
[Профиль] [ЛС]
Кто просматривает тему:

Показать сообщения:    

Текущее время: Сегодня 18:27

Часовой пояс: GMT



Вы не можете начинать темы
Вы не можете отвечать на сообщения
Вы не можете редактировать свои сообщения
Вы не можете удалять свои сообщения
Вы не можете голосовать в опросах
Вы не можете прикреплять файлы к сообщениям
Вы не можете скачивать файлы