Ликвидация / Серии: 1-14 из 14 (Сергей Урсуляк) [2007, детектив,военный, HDTVRip-AVC]

 
Автор Сообщение

aleksan55 ®

Стаж: 1 год 9 месяцев

Сообщений: 1



Награды: Нет

Торрент-статистика

Создавать темы 30-Сен-2016 16:39

[Цитировать]

Ликвидация --
Год выпуска: 2007
Производство: Россия,ЗАО "Централ Партнершип" студия "Дед Мороз"
Жанр: детектив,военный
Продолжительность: 00:44:00
Субтитры: нет
--
Режиссёр: Сергей Урсуляк
--
В ролях: Владимир Машков, Михаил Пореченков, Владимир Меньшов, Сергей Маковецкий, Светлана Крючкова, Юрий Лахин, Александр Сирин, Константин Лавроненко, Константин Желдин, Полина Агуреева, Лика Нифонтова, Ксения Раппопорт, Диана Малая, Виктор Смирнов, Фёдор Добронравов, Борис Каморзин, Александр Голубев, Виктор Супрун, Андрей Бронников, Сергей Угрюмов, Алексей Кирющенко, Александр Семчев, Максим Дрозд, Николай Спиридонов, Олег Басилашвили, Юрий Авшаров, Олег Кассин, Валерий Трошин, Беата Маковская, Сергей Рубеко, Виктор Соловьёв, Геннадий Чулков, Пётр Меркурьев, Владимир Юматов, Станислав Стрелков, Алексей Жиров, Александр Матросов, Сергей Неудачин, Евгений Куршинский, Виктор Тереля, Роман Крюков, Станислав Лесной, Вячеслав Молоков, Олег Семисынов, Виктор Лысенко, Александр Ковалёв, Олег Кулаев, Константин Балакирев, Тимофей Трибунцев, Артём Осипов, Кирилл Кяро, Александр Чернявский (II), Александр Карпиловский, Наталья Рожкова, Богдан Бенюк, Григорий Данцигер, Владимир Михайловский, Александр Карамнов, Святослав Чирков, Наталья Карпунина, Виктор Пасечник, Павел Ворожцов, Игорь Ларин (II), Альберт Каспарянц, Всеволод Кабанов, Андрей Щенников, Валентин Козачков, Андрей Шибаршин, Юрий Мазихин, Валерий Легин
Описание: Послевоенная Одесса, разгул преступности. В городе орудует банда бывших диверсантов во главе с загадочным Академиком, которого не знают даже свои. Бандиты грабят военные склады и пытаются переправить продовольствие, обмундирование и оружие бандеровцам. В это время недовольный Жуковым Сталин назначает его командующим Одесским округом. Маршал всеми силами пытается навести в городе порядок. На борьбу с бандитами посланы все силы, особенно старается начальник уголовного розыска Давид Гоцман. В ходе расследования выясняется, что и в милиции, и в штабе командования у бандитов свои люди, в частности, сам Академик. Жуков и Гоцман прибегают к разным методам, чтобы выйти на банду. В конце концов Гоцман осуществляет идею внедрить в ряды бандитов своего человека и приманкой вынудить их к решительным действиям, чтобы всех взять и выйти на Академика.
--

--
Релиз от:
--
Качество: HDTVRip-AVC
Формат: MKV
Видео кодек: H.264
Аудио кодек: AC3
Видео: MPEG4 Video (H264), 1024x576, 25fps,1750 Kbps,bit/pixel 0.129
Аудио: AC3 48000Hz, stereo, 192kbps,2 ch
--

MI

Общее
Уникальный идентификатор : 189294137217611647547188140746441437220 (0x8E68B9870428E059B23F176793773024)
Полное имя : H:\Сериалы\Ликвидация-AVC\01 серия.mkv
Формат : Matroska
Версия формата : Version 2
Размер файла : 679 Мбайт
Продолжительность : 45 м.
Общий поток : 2083 Кбит/сек
Дата кодирования : UTC 2015-06-14 17:10:21
Программа кодирования : mkvmerge v7.8.0 ('River Man') 32bit built on Apr 3 2015 12:11:22
Библиотека кодирования : libebml v1.3.1 + libmatroska v1.4.2
Видео
Идентификатор : 1
Формат : AVC
Формат/Информация : Advanced Video Codec
Профиль формата : High@L4.1
Параметр CABAC формата : Да
Параметр ReFrames формата : 9 кадров
Идентификатор кодека : V_MPEG4/ISO/AVC
Продолжительность : 45 м.
Битрейт : 1900 Кбит/сек
Ширина : 1024 пикселя
Высота : 576 пикселей
Соотношение сторон : 16:9
Режим частоты кадров : Постоянный
Частота кадров : 25,000 кадров/сек
Цветовое пространство : YUV
Субдискретизация насыщенности : 4:2:0
Битовая глубина : 8 бит
Тип развёртки : Прогрессивная
Бит/(Пиксели*Кадры) : 0.129
Размер потока : 603 Мбайт (89%)
Библиотека кодирования : x264 core 146 r2538 121396c
Настройки программы : cabac=1 / ref=9 / deblock=1:-3:-3 / analyse=0x3:0x113 / me=umh / subme=9 / psy=1 / psy_rd=1.00:0.00 / mixed_ref=1 / me_range=32 / chroma_me=0 / trellis=2 / 8x8dct=1 / cqm=0 / deadzone=21,11 / fast_pskip=1 / chroma_qp_offset=-2 / threads=6 / lookahead_threads=4 / sliced_threads=0 / nr=0 / decimate=0 / interlaced=0 / bluray_compat=0 / constrained_intra=0 / bframes=9 / b_pyramid=2 / b_adapt=1 / b_bias=0 / direct=1 / weightb=1 / open_gop=0 / weightp=2 / keyint=250 / keyint_min=25 / scenecut=40 / intra_refresh=0 / rc_lookahead=30 / rc=2pass / mbtree=1 / bitrate=1900 / ratetol=1.0 / qcomp=0.60 / qpmin=0 / qpmax=69 / qpstep=4 / cplxblur=20.0 / qblur=0.5 / vbv_maxrate=14000 / vbv_bufsize=14000 / nal_hrd=none / filler=0 / ip_ratio=1.40 / aq=1:1.00
Default : Да
Forced : Нет
Цветовой диапазон : Limited
Основные цвета : BT.709
Характеристики трансфера : BT.709
Коэффициенты матрицы : BT.709
Аудио
Идентификатор : 2
Формат : AC-3
Формат/Информация : Audio Coding 3
Расширение режима : CM (complete main)
Параметр Endianness формата : Big
Идентификатор кодека : A_AC3
Продолжительность : 45 м.
Вид битрейта : Постоянный
Битрейт : 192 Кбит/сек
Каналы : 2 канала
Расположение каналов : Front: L R
Частота : 48,0 КГц
Метод сжатия : С потерями
Размер потока : 62,6 Мбайт (9%)
Default : Да
Forced : Нет
--

Скриншоты

--Рекламы нет.
[Профиль] [ЛС]
Показать сообщения:    

Текущее время: Сегодня 20:04

Часовой пояс: GMT



Вы не можете начинать темы
Вы не можете отвечать на сообщения
Вы не можете редактировать свои сообщения
Вы не можете удалять свои сообщения
Вы не можете голосовать в опросах
Вы не можете прикреплять файлы к сообщениям
Вы не можете скачивать файлы