Ликвидация [01-14 из 14] (Сергей Урсуляк) [2007 г., боевик, триллер]

 
Автор Сообщение

BOSS ®

Пол:

Стаж: 2 года 1 месяц

Сообщений: 3735

Откуда: ODESSA



Награды: 20 (Подробнее)

Top Seeder 3 (Количество: 1) Top Seeder 4 (Количество: 1) Top Releaser 3 (Количество: 1)
Торрент-статистика

Создавать темы 04-Ноя-2014 21:36

[Цитировать]

Ликвидация«Место встречи - Одесса» -Страна: Россия / Студия «Дед Мороз», Централ Партнершип
Жанр: боевик, триллер
Год выпуска: 2007
Продолжительность: ~00:46:00 - серия
Перевод: Не требуется
Cубтитры: нет
Оригинальная аудиодорожка: русский
Режиссер: Сергей Урсуляк
В ролях: Владимир Машков, Михаил Пореченков, Владимир Меньшов, Сергей Маковецкий, Константин Лавроненко, Сергей Угрюмов, Светлана Крючкова, Юрий Лахин, Александр Сирин, Константин Желдин...
Описание: Послевоенная Одесса, разгул преступности. В городе орудует банда бывших диверсантов во главе с загадочным Академиком, которого не знают даже свои. Бандиты грабят военные склады и пытаются переправить продовольствие, обмундирование и оружие бандеровцам. В это время недовольный Жуковым Сталин назначает его командующим Одесским округом. Маршал всеми силами пытается навести в городе порядок. На борьбу с бандитами посланы все силы, особенно старается начальник уголовного розыска Давид Гоцман. В ходе расследования выясняется, что и в милиции, и в штабе командования у бандитов свои люди, в частности, сам Академик. Жуков и Гоцман прибегают к разным методам, чтобы выйти на банду. В конце концов Гоцман осуществляет идею внедрить в ряды бандитов своего человека и приманкой вынудить их к решительным действиям, чтобы всех взять и выйти на Академика.

Качество: DVDRip / DVD9 R5
Формат: AVI
Видео: 720x432 (1.667:1), 25.000 fps, XviD ~ 1743 kbps avg, 0.224 bit/pixel
Аудио: 48 kHz, Dolby AC3, 6 ch, 384, 448 kbps, русский
Дополнительно: В исходнике (4xDVD9) в сериях 2-5, 7 был звук АС3 384 кбпс, а в сериях 1, 6, 8-14 - АС3 448 кбпс, во всех рипах, которые мне встречались, так и есть, данный релиз не исключение.

MediaInfo

Общее
Полное имя : Likvidatsiya.2007.O.DVDRip_[New-Team]_by_avproh1.avi
Формат : AVI
Формат/Информация : Audio Video Interleave
Размер файла : 725 Мбайт
Продолжительность : 46 м.
Общий поток : 2200 Кбит/сек
Программа кодирования : VirtualDubModRus 1.5.10.2 (build 2542/release)
Библиотека кодирования : VirtualDubMod build 2542/release
Видео
Идентификатор : 0
Формат : MPEG-4 Visual
Профиль формата : Advanced Simple@L5
Параметр BVOP формата : 1
Параметр QPel формата : Нет
Параметр GMC формата : Без точки перехода
Параметр матрицы формата : Выборочная
Идентификатор кодека : XVID
Идентификатор кодека/Подсказка : XviD
Продолжительность : 46 м.
Битрейт : 1742 Кбит/сек
Ширина : 720 пикселей
Высота : 432 пикселя
Соотношение сторон : 1,667
Частота кадров : 25,000 кадров/сек
Цветовое пространство : YUV
Субдискретизация насыщенности : 4:2:0
Битовая глубина : 8 бит
Тип развёртки : Прогрессивная
Метод сжатия : С потерями
Бит/(Пиксели*Кадры) : 0.224
Размер потока : 574 Мбайт (79%)
Библиотека кодирования : XviD 73
Аудио
Идентификатор : 1
Формат : AC-3
Формат/Информация : Audio Coding 3
Расширение режима : CM (complete main)
Параметр Endianness формата : Big
Идентификатор кодека : 2000
Продолжительность : 46 м.
Вид битрейта : Постоянный
Битрейт : 448 Кбит/сек
Каналы : 6 каналов
Расположение каналов : Front: L C R, Side: L R, LFE
Частота : 48,0 КГц
Битовая глубина : 16 бит
Метод сжатия : С потерями
Размер потока : 148 Мбайт (20%)
Выравнивание : Разделение по промежуткам
Продолжительность промежутка : 40 мс. (1,00 видеокадр)
Время предзагрузки промежутка : 500 мс.

Скриншоты:

[Профиль] [ЛС]
Показать сообщения:    

Текущее время: Сегодня 22:04

Часовой пояс: GMT



Вы не можете начинать темы
Вы не можете отвечать на сообщения
Вы не можете редактировать свои сообщения
Вы не можете удалять свои сообщения
Вы не можете голосовать в опросах
Вы не можете прикреплять файлы к сообщениям
Вы не можете скачивать файлы