Лиззи Борден взяла топор / Lizzie Borden Took an Ax (Ник Гомез / Nick Gomez) [2014, США, триллер, драма, криминал, WEB-DLRip] MVO [iTunes]

 
Автор Сообщение

reversefile ®

Пол:

Стаж: 4 года 5 месяцев

Сообщений: 842

Откуда: ReverseFile.org



Награды: Нет

Торрент-статистика

Создавать темы 25-Июл-2014 01:16

[Цитировать]

Лиззи Борден взяла топорLizzie Borden Took an Ax- Страна: США
Жанр: триллер, драма, криминал, детектив
Год выпуска: 2014
Продолжительность: 01:27:03-Перевод: Профессиональный (многоголосый, закадровый) [iTunes]
Субтитры : нет
Режиссер: Ник Гомез / Nick Gomez
В ролях: Кристина Риччи, Клеа ДюВалл, Грегг Генри, Стивен МакХэтти, Шон Дойл, Сара Ботсфорд, Ханна Андерсон, Андреа Рунге, Билл Кэмпбелл, Джейсон Чемиш-Описание: Подлинная история Лиззи Борден, молодой женщины, осуждённой и оправданной в 1892 году за убийства отца и мачехи.- -Качество: WEB-DLRip | WEB-DL 720p | sample
Контейнер: AVI
Видео: XviD, 688x384 (16:9), 1058 kbps, 23,976 fps, 0,167 bpp
Аудио: MP3 / 2.0 / 48 kHz / 128 kbps /-

Скриншот с названием

Скриншоты

Media Info

General
Complete name : E:\my_rip\Lizzi.Borden.vzyala.topor.2014.WEBDLRip.by.Дядя_Лёша.avi
Format : AVI
Format/Info : Audio Video Interleave
File size : 745 MiB
Duration : 1h 27mn
Overall bit rate : 1 196 Kbps
Writing application : VirtualDubMod 1.5.10.3 | www.virtualdub-fr.org || (build 2550/release)
Writing library : VirtualDubMod build 2550/release
Video
ID : 0
Format : MPEG-4 Visual
Format profile : Advanced Simple@L5
Format settings, BVOP : 1
Format settings, QPel : No
Format settings, GMC : No warppoints
Format settings, Matrix : Custom
Codec ID : XVID
Codec ID/Hint : XviD
Duration : 1h 27mn
Bit rate : 1 059 Kbps
Width : 688 pixels
Height : 384 pixels
Display aspect ratio : 16:9
Frame rate : 23.976 fps
Color space : YUV
Chroma subsampling : 4:2:0
Bit depth : 8 bits
Scan type : Progressive
Compression mode : Lossy
Bits/(Pixel*Frame) : 0.167
Stream size : 659 MiB (89%)
Writing library : XviD 73
Audio
ID : 1
Format : MPEG Audio
Format version : Version 1
Format profile : Layer 3
Mode : Joint stereo
Mode extension : MS Stereo
Codec ID : 55
Codec ID/Hint : MP3
Duration : 1h 27mn
Bit rate mode : Constant
Bit rate : 128 Kbps
Channel(s) : 2 channels
Sampling rate : 48.0 KHz
Compression mode : Lossy
Stream size : 79.7 MiB (11%)
Alignment : Aligned on interleaves
Interleave, duration : 42 ms (1.00 video frame)
Interleave, preload duration : 504 ms
Writing library : LAME3.99r
Encoding settings : -m j -V 4 -q 2 -lowpass 17 -b 128
[Профиль] [ЛС]
Показать сообщения:    

Текущее время: Сегодня 06:22

Часовой пояс: GMT



Вы не можете начинать темы
Вы не можете отвечать на сообщения
Вы не можете редактировать свои сообщения
Вы не можете удалять свои сообщения
Вы не можете голосовать в опросах
Вы не можете прикреплять файлы к сообщениям
Вы не можете скачивать файлы