Лига справедливости: Часть 1 / Justice League (2017) WEBRip 1080p | Трейлер

 
Автор Сообщение

ODESSA ®

Пол:

Стаж: 1 год 7 месяцев

Сообщений: 420

Откуда: ODESSA



Награды: Нет

Торрент-статистика

Создавать темы 31-Июл-2016 14:15

[Цитировать]

Год выпуска: 2017
Производство: США / Warner Bros. Pictures, DC Entertainment, DC Comics, Dune Entertainment, Lensbern Productions
Жанр: Фантастика, фэнтези, боевик, приключения
Перевод: Дублированный (неофициальный)
Режиссер: Зак Снайдер
Продюсеры: Джефф Джонс, Дэн Лин, Джордж Миллер
Актеры: Джаред Лето, Галь Гадот, Генри Кавилл, Эмбер Хёрд, Бен Аффлек, Джейсон Момоа, Эми Адамс, Джесси Айзенберг, Эзра Миллер, Джереми Айронс
Описание фильма:
Понимая, что существуют угрозы, с которыми невозможно справиться в одиночку, Бэтмен и Супермен создают совершенно новую команду, собрав в ней самых могущественных защитников человечества. Объединившись и забыв о разногласиях, героям предстоит столкнуться лицом к лицу со страшной угрозой в лице могущественного правителя планеты Апоколипс — Дарксайда, чья мощь способна обратить в прах не только Землю, но и всю галактику.-Дата мировой премьеры: 16 ноября 2017
Дата российской премьеры: 16 ноября 2017, «Каро-Премьер» 3D
-Продолжительность: 00:02:40
Качество видео: WEBRip
Видеокодек: MPEG-4 AVC/H.264
Битрейт видео: ~21,7 Мбит/сек
Размер кадра: 1920x1056
Аудиокодек: AC3 5.1
Битрейт аудио: 448 Кбит/сек

MediaInfo:

Общее
Уникальный идентификатор : 252400621442195602736914580667563026127 (0xBDE2976B590835C9A1B89CDBB748A6CF)
Полное имя : F:ВидеоJustice League (2017) WEBRip [1080p] Trailer.mkv
Формат : Matroska
Версия формата : Version 4 / Version 2
Размер файла : 405 Мбайт
Продолжительность : 2 м. 40 с.
Общий поток : 21,2 Мбит/сек
Название фильма : В-А специально для NNM
Дата кодирования : UTC 2016-07-30 14:46:15
Программа кодирования : mkvmerge v8.9.0 ('Father Daughter') 64bit
Библиотека кодирования : libebml v1.3.3 + libmatroska v1.4.4
Обложка : Yes
Attachments : cover.jpg
Видео
Идентификатор : 1
Формат : AVC
Формат/Информация : Advanced Video Codec
Профиль формата : High@L4.1
Параметр CABAC формата : Да
Параметр ReFrames формата : 4 кадра
Идентификатор кодека : V_MPEG4/ISO/AVC
Продолжительность : 2 м. 40 с.
Битрейт : 21,7 Мбит/сек
Ширина : 1920 пикселей
Высота : 1056 пикселей
Соотношение сторон : 16:9
Режим частоты кадров : Постоянный
Частота кадров : 23,976 (23976/1000) кадра/сек
Цветовое пространство : YUV
Субдискретизация насыщенности : 4:2:0
Битовая глубина : 8 бит
Тип развёртки : Прогрессивная
Бит/(Пиксели*Кадры) : 0.447
Размер потока : 397 Мбайт (98%)
Библиотека кодирования : x264 core 144 r2533 c8a773e
Настройки программы : cabac=1 / ref=4 / deblock=1:0:0 / analyse=0x3:0x113 / me=umh / subme=8 / psy=1 / psy_rd=1.00:0.00 / mixed_ref=1 / me_range=24 / chroma_me=1 / trellis=1 / 8x8dct=1 / cqm=0 / deadzone=21,11 / fast_pskip=1 / chroma_qp_offset=-2 / threads=6 / lookahead_threads=1 / sliced_threads=0 / nr=0 / decimate=1 / interlaced=0 / bluray_compat=0 / constrained_intra=0 / bframes=3 / b_pyramid=0 / b_adapt=2 / b_bias=0 / direct=3 / weightb=1 / open_gop=0 / weightp=2 / keyint=250 / keyint_min=25 / scenecut=40 / intra_refresh=0 / rc_lookahead=40 / rc=abr / mbtree=1 / bitrate=21725 / ratetol=1.0 / qcomp=0.60 / qpmin=10 / qpmax=51 / qpstep=4 / ip_ratio=1.41 / aq=1:1.00
Язык : English
Default : Да
Forced : Нет
Аудио
Идентификатор : 2
Формат : AC-3
Формат/Информация : Audio Coding 3
Расширение режима : CM (complete main)
Параметр Endianness формата : Big
Идентификатор кодека : A_AC3
Продолжительность : 2 м. 38 с.
Вид битрейта : Постоянный
Битрейт : 448 Кбит/сек
Каналы : 6 каналов
Расположение каналов : Front: L C R, Side: L R, LFE
Частота : 44,1 КГц
Частота кадров : 28,711 кадров/сек (1536 spf)
Метод сжатия : С потерями
Задержка видео : -42 мс.
Размер потока : 8,46 Мбайт (2%)
Заголовок : Дубляж
Язык : Russian
Default : Да
Forced : Да
Скриншоты:
[Профиль] [ЛС]
Кто просматривает тему:

Показать сообщения:    

Текущее время: Сегодня 06:07

Часовой пояс: GMT



Вы не можете начинать темы
Вы не можете отвечать на сообщения
Вы не можете редактировать свои сообщения
Вы не можете удалять свои сообщения
Вы не можете голосовать в опросах
Вы не можете прикреплять файлы к сообщениям
Вы не можете скачивать файлы