Лига Европы 2014-2015. Финал. Днепр (Украина) - Севилья (Испания) (2015) HDTVRip 720p от KinoGadget | iPad

 
Автор Сообщение

sergej644 ®

Пол:

Стаж: 4 года 11 месяцев

Сообщений: 6045

Откуда: Soviet Union



Награды: Нет

Торрент-статистика

Создавать темы 04-Июн-2015 22:30

[Цитировать]

--Лига Европы 2014-2015. Финал. Днепр (Украина) - Севилья (Испания)
Год выпуска: 2015
Жанр: футбол
Выпущено: Россия /НТВ+ Футбол 1 HD
Комментаторы: Василий Уткин, Михаил Поленов
О матче: Лига Европы 2014/15. Финал. Днепр (Украина) - Севилья (Испания). Арбитр: Мартин Аткинсон (Англия). Ассистенты: Майкл Малларки, Стивен Чайлд (оба - Англия). Дополнительные ассистенты: Энтони Тейлор, Андре Марринер (оба - Англия). Четвертый арбитр: Павел Краловец (Чехия)Судейский наблюдатель: Марк Батта (Франция). Делегат УЕФА: Йозеф Климент (Словакия).
Видео кодек: MPEG-4 AVC
Качество: HDTVRip 720p
Параметры Видео: 1280x720, 50.000 fps; ~2 184 kbps avg
Параметры Звука: 44.1 KHz, AAC, ~150.00 kbps avg, 2ch
Формат: mp4
Автор рипа:
Релиз-группа:

Стартовые составы

Meta Tags

MI

General
Complete name : E:EL.2014-2015.Final.Dnipro-Sevilla.HDTVRip.720p_KinoGadget.mp4
Format : MPEG-4
Format profile : Base Media
Codec ID : isom
File size : 2.09 GiB
Duration : 2h 7mn
Overall bit rate mode : Variable
Overall bit rate : 2 347 Kbps
Season : 2015
Movie name : Футбол. ЛЕ 2014-15. Финал. Днепр - Севилья
Genre : Sports
ContentType : Short Film
Recorded date : 2015
Encoded date : UTC 2015-06-04 16:21:47
Tagged date : UTC 2015-06-04 16:44:22
Cover : Yes
LongDeion : Лига Европы 2014/15. Финал. Днепр (Украина) - Севилья (Испания). Арбитр: Мартин Аткинсон (Англия). Ассистенты: Майкл Малларки, Стивен Чайлд (оба - Англия). Дополнительные ассистенты: Энтони Тейлор, Андре Марринер (оба - Англия). Четвертый арбитр: Павел Краловец (Чехия)Судейский наблюдатель: Марк Батта (Франция). Делегат УЕФА: Йозеф Климент (Словакия).
HDVideo : Yes
Video
ID : 1
Format : AVC
Format/Info : Advanced Video Codec
Format profile : High@L4.1
Format settings, CABAC : Yes
Format settings, ReFrames : 9 frames
Codec ID : avc1
Codec ID/Info : Advanced Video Coding
Duration : 2h 7mn
Bit rate : 2 184 Kbps
Maximum bit rate : 3 867 Kbps
Width : 1 280 pixels
Height : 720 pixels
Display aspect ratio : 16:9
Frame rate mode : Constant
Frame rate : 50.000 fps
Color space : YUV
Chroma subsampling : 4:2:0
Bit depth : 8 bits
Scan type : Progressive
Bits/(Pixel*Frame) : 0.047
Stream size : 1.95 GiB (93%)
Writing library : x264 core 146 r2538 121396c
Encoding settings : cabac=1 / ref=9 / deblock=1:-1:-1 / analyse=0x3:0x133 / me=umh / subme=9 / psy=1 / psy_rd=1.00:0.00 / mixed_ref=1 / me_range=24 / chroma_me=1 / trellis=2 / 8x8dct=1 / cqm=0 / deadzone=21,11 / fast_pskip=1 / chroma_qp_offset=-2 / threads=3 / lookahead_threads=1 / sliced_threads=0 / nr=0 / decimate=1 / interlaced=0 / bluray_compat=0 / constrained_intra=0 / bframes=3 / b_pyramid=2 / b_adapt=2 / b_bias=0 / direct=3 / weightb=1 / open_gop=0 / weightp=2 / keyint=250 / keyint_min=25 / scenecut=40 / intra_refresh=0 / rc_lookahead=60 / rc=crf / mbtree=1 / crf=21.0 / qcomp=0.60 / qpmin=0 / qpmax=69 / qpstep=4 / vbv_maxrate=2200 / vbv_bufsize=2200 / crf_max=0.0 / nal_hrd=none / filler=0 / ip_ratio=1.40 / aq=1:1.00
Encoded date : UTC 2015-06-04 15:53:52
Tagged date : UTC 2015-06-04 16:22:47
Audio
ID : 2
Format : AAC
Format/Info : Advanced Audio Codec
Format profile : LC
Codec ID : 40
Duration : 2h 7mn
Bit rate mode : Variable
Bit rate : 150 Kbps
Maximum bit rate : 182 Kbps
Channel count : 2 channels
Channel positions : Front: L R
Sampling rate : 44.1 KHz
Compression mode : Lossy
Delay relative to video : 200ms
Stream size : 137 MiB (6%)
Language : Russian
Encoded date : UTC 2015-06-04 16:22:28
Tagged date : UTC 2015-06-04 16:22:47

Скриншоты

[Профиль] [ЛС]

Создавать темы 02-Авг-2015 23:18 (спустя 1 месяц 28 дней)

Топик был перенесен из форума Футбол в форум Футбол
sergej644
 
Кто просматривает тему:

Показать сообщения:    

Текущее время: Сегодня 16:26

Часовой пояс: GMT



Вы не можете начинать темы
Вы не можете отвечать на сообщения
Вы не можете редактировать свои сообщения
Вы не можете удалять свои сообщения
Вы не можете голосовать в опросах
Вы не можете прикреплять файлы к сообщениям
Вы не можете скачивать файлы