Ливень / Hard Rain (1998) BDRip 720p | D, P, P2, A

 
Автор Сообщение

Russian Mafia ®

Пол:

Стаж: 1 год 8 месяцев

Сообщений: 4253



Награды: 10 (Подробнее)

Mega Seeder 1 (Количество: 1) Mega Seeder 4 (Количество: 1) Top Releaser 5 (Количество: 1)
Торрент-статистика

Создавать темы 12-Окт-2015 11:22

[Цитировать]

Информация о фильме
Название: Ливень
Оригинальное название: Hard Rain
Год выхода: 1998
Жанр: Боевик, фильм-катастрофа, триллер, драма, криминал
Режиссер: Микаэл Саломон
В ролях: Морган Фримен, Кристиан Слэйтер, Рэнди Куэйд, Минни Драйвер, Эдвард Аснер, Майкл А. Гурджиан, Дэнн Флорек, Рики Харрис, Марк Ролстон, Питер Мёрник
О фильме:
Вышедшая из берегов река становится причиной крупного наводнения в провинциальном американском городке. Мимо города следует инкассаторский автомобиль, перевозящий несколько миллионов долларов. Попав в засаду, неопытный охранник Том оказывается один на один с бандой «беспощадного Джима» и бушующей природной стихией. Выжить невозможно...

Страна: США, Германия, Дания, Франция, Япония, Великобритания, Новая Зеландия
Студия: BBC Television Centre, Marubeni Corporation
Продолжительность: 01:36:35
Перевод: Дублированный, профессиональный многоголосый, профессиональный двухголосый, авторский одноголосый
Файл
Кодек: MPEG-4 AVC
Качество: BDRip 720p
Видео: 7943 Кбит/с, 1280x536, 23.976 кадр/с
Звук: Русский (AC3, 2 ch, 192 Кбит/с), (AC3, 2 ch, 384 Кбит/с), (AC3, 6 ch, 640 Кбит/с), украинский (AC3, 6 ch, 448 Кбит/с), английский (AC3, 6 ch, 640 Кбит/с)
Субтитры: Русские, английские, украинские

Релиз

Рип от StarbirS
Аудио#1: Russian: AC3, 48 kHz, AC3, 3/2 (L,C,R,l,r) + LFE ch, ~640.00 kbps avg - Дублированный (R5/Союз Видео)
Аудио#2: Russian: 48 kHz, AC3, 2 (L,R) ch, ~384.00 kbps avg - Профессиональный многоголосый (Lizard Cinema Trade)
Аудио#3: Russian: 48 kHz, AC3, 2 (L,R) ch, ~192.00 kbps avg - Профессиональный многоголосый (ОРТ)
Аудио#4: Russian: 48 kHz, AC3, 2 (L,R) ch, ~192.00 kbps avg - Профессиональный двухголосый (Премьер Мультимедиа)
Аудио#5: Russian: AC3, 48 kHz, AC3, 3/2 (L,C,R,l,r) + LFE ch, ~640.00 kbps avg - Авторский одноголосый (А. Гаврилов)
Аудио#6: Russian: AC3, 48 kHz, AC3, 3/2 (L,C,R,l,r) + LFE ch, ~640.00 kbps avg - Авторский одноголосый (Ю. Живов)
Аудио#7: Russian: AC3, 48 kHz, AC3, 3/2 (L,C,R,l,r) + LFE ch, ~640.00 kbps avg - Авторский одноголосый (Е. Гаевский)
Аудио#8: Ukrainian: AC3, 48 kHz, AC3, 3/2 (L,C,R,l,r) + LFE ch, ~448.00 kbps avg - Профессиональный двухголосый (Новый Канал)
Аудио#9: Ukrainian: AC3, 48 kHz, AC3, 3/2 (L,C,R,l,r) + LFE ch, ~448.00 kbps avg - Профессиональный двухголосый (2+2)
Аудио#10: English: AC3, 48 kHz, AC3, 3/2 (L,C,R,l,r) + LFE ch, ~640.00 kbps avg - Оригинал
Субтитры: Русские, украинские, английские
x264 [info]: frame I:768 Avg QP:16.55 size:105883
x264 [info]: frame P:28675 Avg QP:18.06 size: 63098
x264 [info]: frame B:109493 Avg QP:20.72 size: 36335

Инфо-файл

Формат : Matroska
Версия формата : Version 2
Размер файла : 8,75 Гбайт
Продолжительность : 1 ч. 36 м.
Общий поток : 13,0 Мбит/сек
Название фильма : Hard.Rain.1998.x264.BDRip.720p.Rus.Ukr.Eng
Дата кодирования : UTC 2015-10-12 09:47:28
Программа кодирования : mkvmerge v7.9.0 ('Birds') 64bit
Библиотека кодирования : libebml v1.3.1 + libmatroska v1.4.2
Видео
Идентификатор : 1
Формат : AVC
Формат/Информация : Advanced Video Codec
Профиль формата : High@L4.1
Параметр CABAC формата : Да
Параметр ReFrames формата : 11 кадров
Идентификатор кодека : V_MPEG4/ISO/AVC
Продолжительность : 1 ч. 36 м.
Битрейт : 7839 Кбит/сек
Ширина : 1280 пикселей
Высота : 536 пикселей
Соотношение сторон : 2,40:1
Режим частоты кадров : Постоянный
Частота кадров : 23,976 кадра/сек
Цветовое пространство : YUV
Субдискретизация насыщенности : 4:2:0
Битовая глубина : 8 бит
Тип развёртки : Прогрессивная
Бит/(Пиксели*Кадры) : 0.477
Размер потока : 5,29 Гбайт (60%)
Заголовок : Hard.Rain.1998.x264.BDRip.720p.Rus.Ukr.Eng.by.StarbirS
Библиотека кодирования : x264 core 148 r2597 e86f3a1
Настройки программы : cabac=1 / ref=11 / deblock=1:-3:-3 / analyse=0x3:0x133 / me=umh / subme=10 / psy=1 / psy_rd=1.10:0.10 / mixed_ref=1 / me_range=48 / chroma_me=1 / trellis=2 / 8x8dct=1 / cqm=0 / deadzone=21,11 / fast_pskip=0 / chroma_qp_offset=-3 / threads=12 / lookahead_threads=2 / sliced_threads=0 / nr=0 / decimate=0 / interlaced=0 / bluray_compat=0 / constrained_intra=0 / bframes=9 / b_pyramid=2 / b_adapt=2 / b_bias=0 / direct=3 / weightb=1 / open_gop=1 / weightp=2 / keyint=230 / keyint_min=23 / scenecut=60 / intra_refresh=0 / rc=crf / mbtree=0 / crf=18.7 / qcomp=0.70 / qpmin=0 / qpmax=69 / qpstep=4 / ip_ratio=1.40 / pb_ratio=1.30 / aq=2:0.90
Язык : English
Default : Да
Forced : Нет
Аудио #1
Идентификатор : 2
Формат : AC-3
Формат/Информация : Audio Coding 3
Расширение режима : CM (complete main)
Параметр Endianness формата : Big
Идентификатор кодека : A_AC3
Продолжительность : 1 ч. 36 м.
Вид битрейта : Постоянный
Битрейт : 640 Кбит/сек
Каналы : 6 каналов
Расположение каналов : Front: L C R, Side: L R, LFE
Частота : 48,0 КГц
Метод сжатия : С потерями
Размер потока : 442 Мбайт (5%)
Заголовок : Дублированный (R5/Союз Видео)
Язык : Russian
Default : Да
Forced : Нет
Аудио #2
Идентификатор : 3
Формат : AC-3
Формат/Информация : Audio Coding 3
Расширение режима : CM (complete main)
Параметр Endianness формата : Big
Идентификатор кодека : A_AC3
Продолжительность : 1 ч. 36 м.
Вид битрейта : Постоянный
Битрейт : 384 Кбит/сек
Каналы : 2 канала
Расположение каналов : Front: L R
Частота : 48,0 КГц
Метод сжатия : С потерями
Размер потока : 265 Мбайт (3%)
Заголовок : Профессиональный многоголосый (Lizard Cinema Trade)
Язык : Russian
Default : Нет
Forced : Нет
Аудио #3
Идентификатор : 4
Формат : AC-3
Формат/Информация : Audio Coding 3
Расширение режима : CM (complete main)
Параметр Endianness формата : Big
Идентификатор кодека : A_AC3
Продолжительность : 1 ч. 36 м.
Вид битрейта : Постоянный
Битрейт : 192 Кбит/сек
Каналы : 2 канала
Расположение каналов : Front: L R
Частота : 48,0 КГц
Метод сжатия : С потерями
Размер потока : 133 Мбайт (1%)
Заголовок : Профессиональный многоголосый (ОРТ)
Язык : Russian
Default : Нет
Forced : Нет
Аудио #4
Идентификатор : 5
Формат : AC-3
Формат/Информация : Audio Coding 3
Расширение режима : CM (complete main)
Параметр Endianness формата : Big
Идентификатор кодека : A_AC3
Продолжительность : 1 ч. 36 м.
Вид битрейта : Постоянный
Битрейт : 192 Кбит/сек
Каналы : 2 канала
Расположение каналов : Front: L R
Частота : 48,0 КГц
Метод сжатия : С потерями
Размер потока : 133 Мбайт (1%)
Заголовок : Профессиональный двухголосый (Премьер Мультимедиа)
Язык : Russian
Default : Нет
Forced : Нет
Аудио #5
Идентификатор : 6
Формат : AC-3
Формат/Информация : Audio Coding 3
Расширение режима : CM (complete main)
Параметр Endianness формата : Big
Идентификатор кодека : A_AC3
Продолжительность : 1 ч. 36 м.
Вид битрейта : Постоянный
Битрейт : 640 Кбит/сек
Каналы : 6 каналов
Расположение каналов : Front: L C R, Side: L R, LFE
Частота : 48,0 КГц
Метод сжатия : С потерями
Размер потока : 442 Мбайт (5%)
Заголовок : Авторский одноголосый (А. Гаврилов)
Язык : Russian
Default : Нет
Forced : Нет
Аудио #6
Идентификатор : 7
Формат : AC-3
Формат/Информация : Audio Coding 3
Расширение режима : CM (complete main)
Параметр Endianness формата : Big
Идентификатор кодека : A_AC3
Продолжительность : 1 ч. 36 м.
Вид битрейта : Постоянный
Битрейт : 640 Кбит/сек
Каналы : 6 каналов
Расположение каналов : Front: L C R, Side: L R, LFE
Частота : 48,0 КГц
Метод сжатия : С потерями
Размер потока : 442 Мбайт (5%)
Заголовок : Авторский одноголосый (Ю. Живов)
Язык : Russian
Default : Нет
Forced : Нет
Аудио #7
Идентификатор : 8
Формат : AC-3
Формат/Информация : Audio Coding 3
Расширение режима : CM (complete main)
Параметр Endianness формата : Big
Идентификатор кодека : A_AC3
Продолжительность : 1 ч. 36 м.
Вид битрейта : Постоянный
Битрейт : 640 Кбит/сек
Каналы : 6 каналов
Расположение каналов : Front: L C R, Side: L R, LFE
Частота : 48,0 КГц
Метод сжатия : С потерями
Размер потока : 442 Мбайт (5%)
Заголовок : Авторский одноголосый (Е. Гаевский)
Язык : Russian
Default : Нет
Forced : Нет
Аудио #8
Идентификатор : 9
Формат : AC-3
Формат/Информация : Audio Coding 3
Расширение режима : CM (complete main)
Параметр Endianness формата : Big
Идентификатор кодека : A_AC3
Продолжительность : 1 ч. 36 м.
Вид битрейта : Постоянный
Битрейт : 448 Кбит/сек
Каналы : 6 каналов
Расположение каналов : Front: L C R, Side: L R, LFE
Частота : 48,0 КГц
Метод сжатия : С потерями
Размер потока : 310 Мбайт (3%)
Заголовок : Профессиональный двухголосый (Новый Канал)
Язык : Ukrainian
Default : Нет
Forced : Нет
Аудио #9
Идентификатор : 10
Формат : AC-3
Формат/Информация : Audio Coding 3
Расширение режима : CM (complete main)
Параметр Endianness формата : Big
Идентификатор кодека : A_AC3
Продолжительность : 1 ч. 36 м.
Вид битрейта : Постоянный
Битрейт : 448 Кбит/сек
Каналы : 6 каналов
Расположение каналов : Front: L C R, Side: L R, LFE
Частота : 48,0 КГц
Метод сжатия : С потерями
Размер потока : 310 Мбайт (3%)
Заголовок : Профессиональный двухголосый (2+2)
Язык : Ukrainian
Default : Нет
Forced : Нет
Аудио #10
Идентификатор : 11
Формат : AC-3
Формат/Информация : Audio Coding 3
Расширение режима : CM (complete main)
Параметр Endianness формата : Big
Идентификатор кодека : A_AC3
Продолжительность : 1 ч. 36 м.
Вид битрейта : Постоянный
Битрейт : 640 Кбит/сек
Каналы : 6 каналов
Расположение каналов : Front: L C R, Side: L R, LFE
Частота : 48,0 КГц
Метод сжатия : С потерями
Размер потока : 442 Мбайт (5%)
Язык : English
Default : Нет
Forced : Нет
Текст #1
Идентификатор : 12
Формат : UTF-8
Идентификатор кодека : S_TEXT/UTF8
Идентификатор кодека/Информация : UTF-8 Plain Text
Заголовок : full
Язык : Russian
Default : Нет
Forced : Нет
Текст #2
Идентификатор : 13
Формат : UTF-8
Идентификатор кодека : S_TEXT/UTF8
Идентификатор кодека/Информация : UTF-8 Plain Text
Заголовок : full
Язык : Ukrainian
Default : Нет
Forced : Нет
Текст #3
Идентификатор : 14
Формат : UTF-8
Идентификатор кодека : S_TEXT/UTF8
Идентификатор кодека/Информация : UTF-8 Plain Text
Заголовок : full
Язык : English
Default : Нет
Forced : Нет
Текст #4
Идентификатор : 15
Формат : UTF-8
Идентификатор кодека : S_TEXT/UTF8
Идентификатор кодека/Информация : UTF-8 Plain Text
Заголовок : SDH
Язык : English
Default : Нет
Forced : Нет
Меню
00:00:00.000 : en:00:00:00.000
00:05:00.000 : en:00:05:00.000
00:10:00.000 : en:00:10:00.000
00:15:00.000 : en:00:15:00.000
00:20:00.000 : en:00:20:00.000
00:25:00.000 : en:00:25:00.000
00:30:00.000 : en:00:30:00.000
00:35:00.000 : en:00:35:00.000
00:40:00.000 : en:00:40:00.000
00:45:00.000 : en:00:45:00.000
00:50:00.000 : en:00:50:00.000
00:55:00.000 : en:00:55:00.000
01:00:00.000 : en:01:00:00.000
01:05:00.000 : en:01:05:00.000
01:10:00.000 : en:01:10:00.000
01:15:00.000 : en:01:15:00.000
01:20:00.000 : en:01:20:00.000
01:25:00.000 : en:01:25:00.000
01:30:00.000 : en:01:30:00.000
01:35:00.000 : en:01:35:00.000

Скриншоты


[Профиль] [ЛС]
Показать сообщения:    

Текущее время: Сегодня 18:59

Часовой пояс: GMT



Вы не можете начинать темы
Вы не можете отвечать на сообщения
Вы не можете редактировать свои сообщения
Вы не можете удалять свои сообщения
Вы не можете голосовать в опросах
Вы не можете прикреплять файлы к сообщениям
Вы не можете скачивать файлы