Лето Мартино / L\'estate di Martino (Массимо Натали / Massimo Natale) [2010, Италия, драма, DVDRip] VO + Sub Rus + Original Ita

 
Автор Сообщение

TorrentFilm ®

Пол:

Стаж: 2 года

Сообщений: 7741



Награды: Нет

Торрент-статистика

Создавать темы 07-Дек-2015 00:12

[Цитировать]

Лето Мартино / L'estate di Martino
Страна: Италия
Жанр: драма
Год выпуска: 2010
Продолжительность: 01:20:40
Перевод: Одноголосый закадровый
Cубтитры: русские
Оригинальная аудиодорожка: итальянский
Режиссер: Массимо Натали / Massimo Natale
В ролях: Трит Уильямс / Treat Williams, Матильда Пеццотта / Matilde Pezzotta, Маттео Пьянецци / Matteo Pianezzi, Пьетро Мазотти / Pietro Masotti, Луиджи Чардо / Luigi Ciardo, Симона Боррелли / Simone Borrelli.
Описание: У четырнадцатилетнего Мартино нет матери и сложные отношения с отцом; как и все подростки, Мартино жаждет свободы. Вместе с братом Массимо и девушкой брата Сильвией, в которую он тайно влюблен, Мартино проводит каникулы на прекрасном апулийском побережье, где расположена база НАТО, и знакомится с американским капитаном Джеффом Кларком. Они становятся друзьями, и не просто на почве любви к серфингу: в капитане, столь непохожем на его родного отца, мальчик обретает идеальную отцовскую фигуру. «Лето Мартино» отсылает нас к романам воспитания, к сказкам и преданиям — среди прочих, к легенде о пирате Драгуте, которую мать рассказывала Мартино, когда он был маленьким… И всё происходит на фоне одного из трагических эпизодов итальянской истории: летом 1980 года.
Доп. информация: Фильм взят отсюда http://torrentfilm.net/forum/viewtopic.php?t=4274454
Сэмпл: http://multi-up.com/1077818
Качество видео: DVDRip
Формат видео: AVI
Видео: 640x336 (1.90:1), 25 fps, XviD build 50 ~1968 kbps avg, 0.37 bit/pixel
Аудио 1: 48 kHz, AC3 Dolby Digital, 2/0 (L,R) ch, ~224.00 kbps avg(Русский)
Аудио 2: 48 kHz, AC3 Dolby Digital, 3/2 (L,C,R,l,r) + LFE ch, ~448.00 kbps avg(Итальянский)
Формат субтитров: softsub (SRT)
Доп. информация о субтитрах: Русские внешние (maricos)

MediaInfo

Общее
Полное имя : F:\С моей озвучкой\Лето Мартино\L'estate di Martino.avi
Формат : AVI
Формат/Информация : Audio Video Interleave
Размер файла : 1,50 Гбайт
Продолжительность : 1 ч. 20 м.
Общий поток : 2656 Кбит/сек
Программа кодирования : VirtualDubModRus 1.5.10.2 (build 2542/release)
Библиотека кодирования : VirtualDubMod build 2542/release
Видео
Идентификатор : 0
Формат : MPEG-4 Visual
Профиль формата : Advanced Simple@L5
Параметр BVOP формата : 1
Параметр QPel формата : Нет
Параметр GMC формата : Без точки перехода
Параметр матрицы формата : Default (MPEG)
Идентификатор кодека : XVID
Идентификатор кодека/Подсказка : XviD
Продолжительность : 1 ч. 20 м.
Битрейт : 1970 Кбит/сек
Ширина : 640 пикселей
Высота : 336 пикселей
Соотношение сторон : 1,905
Частота кадров : 25,000 кадров/сек
Цветовое пространство : YUV
Субдискретизация насыщенности : 4:2:0
Битовая глубина : 8 бит
Тип развёртки : Прогрессивная
Метод сжатия : С потерями
Бит/(Пиксели*Кадры) : 0.366
Размер потока : 1,11 Гбайт (74%)
Библиотека кодирования : XviD 1.2.1 (UTC 2008-12-04)
Аудио #1
Идентификатор : 1
Формат : AC-3
Формат/Информация : Audio Coding 3
Расширение режима : CM (complete main)
Параметр Endianness формата : Big
Идентификатор кодека : 2000
Продолжительность : 1 ч. 20 м.
Вид битрейта : Постоянный
Битрейт : 224 Кбит/сек
Каналы : 2 канала
Расположение каналов : Front: L R
Частота : 48,0 КГц
Битовая глубина : 16 бит
Метод сжатия : С потерями
Размер потока : 129 Мбайт (8%)
Выравнивание : Разделение по промежуткам
Продолжительность промежутка : 40 мс. (1,00 видеокадр)
Время предзагрузки промежутка : 500 мс.
Аудио #2
Идентификатор : 2
Формат : AC-3
Формат/Информация : Audio Coding 3
Расширение режима : CM (complete main)
Параметр Endianness формата : Big
Идентификатор кодека : 2000
Продолжительность : 1 ч. 20 м.
Вид битрейта : Постоянный
Битрейт : 448 Кбит/сек
Каналы : 6 каналов
Расположение каналов : Front: L C R, Side: L R, LFE
Частота : 48,0 КГц
Битовая глубина : 16 бит
Метод сжатия : С потерями
Размер потока : 258 Мбайт (17%)
Выравнивание : Разделение по промежуткам
Продолжительность промежутка : 40 мс. (1,00 видеокадр)
Время предзагрузки промежутка : 500 мс.

Скриншоты

[Профиль] [ЛС]

Создавать темы 12-Июн-2016 07:53 (спустя 6 месяцев 5 дней)

Топик был перенесен из форума Фильмы 2011 года в форум Фильмы 2010 года
Russian Mafia
 
Кто просматривает тему:

Показать сообщения:    

Текущее время: Сегодня 06:04

Часовой пояс: GMT



Вы не можете начинать темы
Вы не можете отвечать на сообщения
Вы не можете редактировать свои сообщения
Вы не можете удалять свои сообщения
Вы не можете голосовать в опросах
Вы не можете прикреплять файлы к сообщениям
Вы не можете скачивать файлы