Лето липовцев / L\'ete des Lip / The Summer of Lip / Watch Your Lip! (Доминик Ладож / Dominique Ladoge) [2010, Франция, драма, мелодрама, DVB -> DVD] Original (Fre) + Sub (Rus, Eng, Fre, Deu)

 
Автор Сообщение

TorrentFilm ®

Пол:

Стаж: 2 года

Сообщений: 7741



Награды: Нет

Торрент-статистика

Создавать темы 20-Авг-2015 00:04

[Цитировать]

Лето липовцев
L'été des Lip- Страна: Франция
Жанр: драма, мелодрама
Год выпуска: 2010
Продолжительность: 01:39:09Перевод: Субтитры (русский перевод И. Рыбкиной, Éclair Group)
Cубтитры: русские, английские, французские, немецкие, нидерландские, румынские
Оригинальная аудиодорожка: французский
Режиссер: Доминик Ладож / Dominique Ladoge
В ролях: Анн-Софи Франк / Anne-Sophie Franck (Tulipe), Бернар Бланкан / Bernard Blancan (Charles Piaget), Серж Рябукин / Serge Riaboukine (Giuseppe), Аньес Сораль / Agnès Soral (Suzanne Forestier), Лиззи Брошере / Lizzie Brocheré (Patricia Mélinès), Ксавье Остен / Xavier Hosten (Sébastien Chaperon)
Описание: "Отличная адаптация социального кризиса 1970-х". (Le Figaro)
Любовная история на фоне социальных конфликтов. Фильм от имени главной героини 20-летней Тюлип, рассказывает о реальных событиях, случившихся во время забастовки на старейшей французской часовой фабрике Lip в Безансоне в 1973 году, когда швейцарская компания, тайно купившая фабрику, решила провести преобразования бизнеса и осуществить массовые увольнения сотрудников. Начавшаяся борьба рабочих за свои права продолжалась вплоть до 1976 года и мобилизовала десятки тысяч людей не только во Франции, но и в Европе, что вылилось, в частности в 100-тысячный марш протеста на Безансон 29 сентября 1973 года. Эти события стали самыми значимыми во французской общественной жизни после Майской революции 1968 года.
Доп. информация: Hot Bird (13.0°E) TV5MONDE Europe DVB-S
Награды: 2 номинации Le Festival des Créations Télévisuelles de Luchon 2011 (Pyrénées d'Or за лучший игровой фильм, лучший режиссер).

Качество видео: DVB
Формат видео: DVD Video
Видео: MPEG Video 2, 720x576@1024x576 (16:9), 25 fps, ~3213 kbps avg, 0.310 bit/pixel
Аудио: MPEG Audio 2, 2 ch, 48 kHz, ~192.00 kbps avg - французский
Формат субтитров: prerendered (IDX+SUB)

MediaInfo

Title: [apreder]L'ete_des_Lip(2010)DVBSize: 2.41 Gb ( 2 524 900,00 KBytes ) - DVD-5Enabled regions: 1, 2, 3, 4, 5, 6, 7, 8
VTS_01 : Play Length: 01:39:09 Video: PAL 16:9 (720x576) VBR, Auto Letterboxed Audio: Francais (MPEG1, 2 ch) Subtitles: Russian English Francais Deutsch Nederlands Romanian
ОбщееПолное имя : F:\My Torrents 3\[apreder]L'ete_des_Lip(2010)DVB\VIDEO_TS\VTS_01_2.VOBФормат : MPEG-PSРазмер файла : 1024 МбайтПродолжительность : 41 м.Режим общего битрейта : ПеременныйОбщий поток : 3474 Кбит/сек
ВидеоИдентификатор : 224 (0xE0)Формат : MPEG VideoВерсия формата : Version 2Профиль формата : Main@MainПараметр BVOP формата : ДаПараметр матрицы формата : ВыборочнаяПараметр GOP формата : M=4, N=12Format_Settings_PictureStructure : FrameПродолжительность : 41 м.Вид битрейта : ПеременныйБитрейт : 3213 Кбит/секШирина : 720 пикселейВысота : 576 пикселейСоотношение сторон : 16:9Частота кадров : 25,000 кадров/секСтандарт вещания : PALЦветовое пространство : YUVСубдискретизация насыщенности : 4:2:0Битовая глубина : 8 битТип развёртки : ЧересстрочнаяПорядок развёртки : Верхнее поле первоеМетод сжатия : С потерямиБит/(Пиксели*Кадры) : 0.310Временной код первого кадра : 00:41:08:01Оригинал временного кода : Group of pictures headerРазмер потока : 947 Мбайт (92%)
АудиоИдентификатор : 192 (0xC0)Формат : MPEG AudioВерсия формата : Version 1Профиль формата : Layer 2Режим : Joint stereoРасширение режима : Intensity Stereo + MS StereoПродолжительность : 41 м.Вид битрейта : ПостоянныйБитрейт : 192 Кбит/секКаналы : 2 каналаЧастота : 48,0 КГцМетод сжатия : С потерямиЗадержка видео : -624 мс.Размер потока : 56,6 Мбайт (6%)
Текст #1Идентификатор : 189 (0xBD)-32 (0x20)Формат : RLEФормат/Информация : Run-length encodingРежим смешивания : DVD-VideoПродолжительность : 41 м.Задержка видео : 3 с. 640 мс.
Текст #2Идентификатор : 189 (0xBD)-33 (0x21)Формат : RLEФормат/Информация : Run-length encodingРежим смешивания : DVD-VideoПродолжительность : 41 м.Задержка видео : 3 с. 720 мс.
Текст #3Идентификатор : 189 (0xBD)-34 (0x22)Формат : RLEФормат/Информация : Run-length encodingРежим смешивания : DVD-VideoПродолжительность : 41 м.Задержка видео : 3 с. 640 мс.
Текст #4Идентификатор : 189 (0xBD)-35 (0x23)Формат : RLEФормат/Информация : Run-length encodingРежим смешивания : DVD-VideoПродолжительность : 41 м.Задержка видео : 3 с. 640 мс.
Текст #5Идентификатор : 189 (0xBD)-36 (0x24)Формат : RLEФормат/Информация : Run-length encodingРежим смешивания : DVD-VideoПродолжительность : 41 м.Задержка видео : 3 с. 640 мс.
Текст #6Идентификатор : 189 (0xBD)-37 (0x25)Формат : RLEФормат/Информация : Run-length encodingРежим смешивания : DVD-VideoПродолжительность : 41 м.Задержка видео : 7 с. 0 мс.

Скриншот c названием фильма

Скриншоты


Резервные скриншоты


-[634]
[Профиль] [ЛС]

Создавать темы 12-Июн-2016 07:53 (спустя 9 месяцев 23 дня)

Топик был перенесен из форума Фильмы 2011 года в форум Фильмы 2010 года
Russian Mafia
 
Кто просматривает тему:

Показать сообщения:    

Текущее время: Сегодня 18:50

Часовой пояс: GMT



Вы не можете начинать темы
Вы не можете отвечать на сообщения
Вы не можете редактировать свои сообщения
Вы не можете удалять свои сообщения
Вы не можете голосовать в опросах
Вы не можете прикреплять файлы к сообщениям
Вы не можете скачивать файлы