Летний лагерь / Summer Camp (2015) BDRemux 1080p от ExKinoRay | L2

 
Автор Сообщение

Russian Mafia ®

Пол:

Стаж: 1 год 8 месяцев

Сообщений: 4257



Награды: 10 (Подробнее)

Top Releaser 5 (Количество: 1) Mega Seeder 2 (Количество: 1) За внесенный вклад в развитие сайта (Количество: 1)
Торрент-статистика

Создавать темы 05-Авг-2016 05:36

[Цитировать]

Информация о фильме
Название: Летний лагерь
Оригинальное название: Summer Camp
Год выхода: 2015
Жанр: Ужасы
Режиссер: Альберто Марини
В ролях: Диего Бонета, Джоселин Донахью, Майра Уолш, Андрес Веленкосо, Алекс Моннер, Хавьер Капдет, Рик Зингейл, Марк Шардан
О фильме:
В поисках веселья и новых впечатлений, четверо молодых американцев устраиваются вожатыми в летний лагерь в Европе. Они готовы ко многому из ожидаемого: всевозможные насекомые, бессонные ночи и даже дети-хулиганы… Но совсем не к тому, что это лето может стать последним в их жизни. Как только они прибывают к месту назначения, в лагере вспыхивает странная эпидемия, и вирус, вызывая у зараженных приступы дикой ярости, превращает всех вокруг в буйных сумасшедших, погружая в спираль безумия.

Страна: Испания, США
Студия: Castelao Pictures, Filmax Group, Rebelion Terrestre, Somnium Films
Продолжительность: 01:24:03
Перевод: Любительский двухголосый (закадровый) | DeadSno&Den904
Файл
Кодек: MPEG-4
Качество: BDRemux 1080p
Видео: 1920x1080, 19.8 Mbit/s, 24.000 fps
Звук:
Аудио #01: 48 kHz, AC3, 2.0, 192 Kbps | Любительский двухголосый (закадровый) | DeadSno&Den904 |
Аудио #02: 48 kHz, DTS-HD MA, 5.1, 1920 kbps | Оригинал |

MI

General
Unique ID : 214878232423936521405043246196624681867 (0xA1A80ACF1367AA1B8C834F87B0876B8B)
Complete name : G:VideoSummer.Camp.2015.DVO.BDREMUX.1080p.ExKinoRay.mkv
Format : Matroska
Format version : Version 4 / Version 2
File size : 12.9 GiB
Duration : 1h 24mn
Overall bit rate mode : Variable
Overall bit rate : 21.9 Mbps
Movie name : Summer.Camp.2015.DVO.BDREMUX.1080p.ExKinoRay
Encoded date : UTC 2016-08-04 23:20:34
Writing application : mkvmerge v8.3.0 ('Over the Horizon') 64bit
Writing library : libebml v1.3.1 + libmatroska v1.4.2
Video
ID : 1
Format : AVC
Format/Info : Advanced Video Codec
Format profile : High@L4.1
Format settings, CABAC : Yes
Format settings, ReFrames : 4 frames
Codec ID : V_MPEG4/ISO/AVC
Duration : 1h 24mn
Bit rate mode : Variable
Bit rate : 19.8 Mbps
Maximum bit rate : 30.0 Mbps
Width : 1 920 pixels
Height : 1 080 pixels
Display aspect ratio : 16:9
Frame rate mode : Constant
Frame rate : 24.000 fps
Standard : NTSC
Color space : YUV
Chroma subsampling : 4:2:0
Bit depth : 8 bits
Scan type : Progressive
Bits/(Pixel*Frame) : 0.398
Stream size : 11.6 GiB (90%)
Language : English
Default : Yes
Forced : No
Color range : Limited
Color primaries : BT.709
Transfer characteristics : BT.709
Matrix coefficients : BT.709
Audio #1
ID : 2
Format : AC-3
Format/Info : Audio Coding 3
Mode extension : CM (complete main)
Format settings, Endianness : Big
Codec ID : A_AC3
Duration : 1h 23mn
Bit rate mode : Constant
Bit rate : 192 Kbps
Channel(s) : 2 channels
Channel positions : Front: L R
Sampling rate : 48.0 KHz
Frame rate : 31.250 fps (1536 spf)
Compression mode : Lossy
Delay relative to video : 16s 0ms
Stream size : 115 MiB (1%)
Title : DVO [DeadSno&Den904]
Language : Russian
Default : Yes
Forced : No
Audio #2
ID : 3
Format : DTS
Format/Info : Digital Theater Systems
Format profile : MA / Core
Mode : 16
Format settings, Endianness : Big
Codec ID : A_DTS
Duration : 1h 24mn
Bit rate mode : Variable / Constant
Bit rate : 1 920 Kbps / 768 Kbps
Channel(s) : 6 channels
Channel positions : Front: L C R, Side: L R, LFE
Sampling rate : 48.0 KHz
Frame rate : 93.750 fps (512 spf)
Bit depth : 16 bits
Compression mode : Lossless / Lossy
Stream size : 1.12 GiB (9%)
Title : Original
Language : English
Default : No
Forced : No
Menu
00:00:00.000 : en:Chapter 01
00:11:12.458 : en:Chapter 02
00:21:03.375 : en:Chapter 03
00:30:09.458 : en:Chapter 04
00:40:24.625 : en:Chapter 05
00:47:06.833 : en:Chapter 06
00:55:10.125 : en:Chapter 07
01:06:06.042 : en:Chapter 08

Скриншоты

Релиз от: Автор релиза:
[Профиль] [ЛС]
Показать сообщения:    

Текущее время: Сегодня 06:08

Часовой пояс: GMT



Вы не можете начинать темы
Вы не можете отвечать на сообщения
Вы не можете редактировать свои сообщения
Вы не можете удалять свои сообщения
Вы не можете голосовать в опросах
Вы не можете прикреплять файлы к сообщениям
Вы не можете скачивать файлы