Летели два верблюда (Раса Страутмане) [1988, Кукольный мультфильм, WEBRip]

 
Автор Сообщение

TorrentFilm ®

Пол:

Стаж: 1 год 11 месяцев

Сообщений: 7741



Награды: Нет

Торрент-статистика

Создавать темы 12-Окт-2015 00:11

[Цитировать]

Летели два верблюда
Страна: СССР
Жанр: Кукольный мультфильм
Продолжительность: 00:09:26
Год выпуска: 1988
Русские субтитры: нет
Режиссёр: Раса Страутмане
Описание: Не умеющие хорошо играть музыканты-животные создают ансамбль, который как ни странно имеет успех, исполняя шлягер "летели два верблюда".Это своеобразная музыкальная пародия на нерадивые ансамбли, которые поют песни с бездарной музыкой и словами.
Доп. информация:
«Союзмультфильм»
сценарист Давид Самойлов
художник-постановщик Юрий Исайкин
аниматоры Ирина Собинова-Кассиль, Ольга Панокина, Лидия Маятникова
оператор Сергей Хлебников
директор Григорий Хмара
композитор В. Голутвин
звукорежиссер Владимир Кутузов

С участием группы "СВ". Артисты: А.Петров, М.Лобанов, С.Федосов, А.Карапетян

Раздача группы:
Качество: WEBRip
Формат: AVI
Видео: 640x480 (1.33:1), 25 fps, XviD build 50 ~900 kbps avg, 0.12 bit/pixel
Аудио: 32 kHz, MPEG Layer 3, 2 ch, ~96.00 kbps avg
Субтитры: нет

Подробные технические данные

Format : AVIFormat/Info : Audio Video InterleaveFile size : 67.9 MiBDuration : 9mn 26sOverall bit rate : 1 007 KbpsWriting application : VirtualDubMod 1.5.10.2 (build 2540/release)Writing library : VirtualDubMod build 2540/release
VideoID : 0Format : MPEG-4 VisualFormat profile : Advanced Simple@L5Format settings, BVOP : 3Format settings, QPel : NoFormat settings, GMC : No warppointsFormat settings, Matrix : Default (H.263)Codec ID : XVIDCodec ID/Hint : XviDDuration : 9mn 26sBit rate : 901 KbpsWidth : 640 pixelsHeight : 480 pixelsDisplay aspect ratio : 4:3Frame rate : 25.000 fpsColor space : YUVChroma subsampling : 4:2:0Bit depth : 8 bitsScan type : ProgressiveCompression mode : LossyBits/(Pixel*Frame) : 0.117Stream size : 60.8 MiB (89%)Writing library : XviD 1.2.1 (UTC 2008-12-04)
AudioID : 1Format : MPEG AudioFormat version : Version 1Format profile : Layer 3Codec ID : 55Codec ID/Hint : MP3Duration : 9mn 26sBit rate mode : ConstantBit rate : 96.0 KbpsChannel(s) : 2 channelsSampling rate : 32.0 KHzCompression mode : LossyStream size : 6.48 MiB (10%)Alignment : Aligned on interleavesInterleave, duration : 40 ms (1.00 video frame)Interleave, preload duration : 504 msWriting library : LAME3.98rEncoding settings : -m s -V 4 -q 0 -lowpass 15.1 -b 96

Скриншоты

[Профиль] [ЛС]
Кто просматривает тему:

Показать сообщения:    

Текущее время: Сегодня 04:59

Часовой пояс: GMT



Вы не можете начинать темы
Вы не можете отвечать на сообщения
Вы не можете редактировать свои сообщения
Вы не можете удалять свои сообщения
Вы не можете голосовать в опросах
Вы не можете прикреплять файлы к сообщениям
Вы не можете скачивать файлы