Летающий суслик (Дамир Салимов, Валерий Жирнов) [1983, Рисованный мультфильм, VHSRip]

 
Автор Сообщение

TorrentFilm ®

Пол:

Стаж: 2 года

Сообщений: 7741



Награды: Нет

Торрент-статистика

Создавать темы 03-Янв-2016 00:05

[Цитировать]

Летающий суслик
Страна: СССР
Жанр: Рисованный мультфильм
Продолжительность: 00:08:40
Год выпуска: 1983
Русские субтитры: нет
Режиссёр: Дамир Салимов, Валерий Жирнов
Описание: Как маленький суслик попал в орлиное гнездо и подружился с орленком
Доп. информация: „Узбекфильм“
Художник:С.Рябых,О.Тяжелова
Оператор:В.Никитин
Раздача группы:
Качество: VHSRip
Формат: AVI
Видео: 720x544 (1.32:1), 25 fps, XviD MPEG-4 ~2000 kbps avg, 0.20 bit/pixel
Аудио: 48 kHz, MPEG Layer 3, 1 ch, ~96.00 kbps avg
Субтитры: нет

Подробные технические данные

Format : AVIFormat/Info : Audio Video InterleaveFile size : 131 MiBDuration : 8mn 40sOverall bit rate : 2 106 KbpsWriting application : VirtualDubMod 1.5.10.3 | www.virtualdub-fr.org || (build 2550/release)Writing library : VirtualDubMod build 2550/release
VideoID : 0Format : MPEG-4 VisualFormat profile : Simple@L1Format settings, BVOP : NoFormat settings, QPel : NoFormat settings, GMC : No warppointsFormat settings, Matrix : Default (H.263)Codec ID : XVIDCodec ID/Hint : XviDDuration : 8mn 40sBit rate : 2 000 KbpsWidth : 720 pixelsHeight : 544 pixelsDisplay aspect ratio : 4:3Frame rate : 25.000 fpsColor space : YUVChroma subsampling : 4:2:0Bit depth : 8 bitsScan type : ProgressiveCompression mode : LossyBits/(Pixel*Frame) : 0.204Stream size : 124 MiB (95%)Writing library : Lavc53.33.0
AudioID : 1Format : MPEG AudioFormat version : Version 1Format profile : Layer 3Codec ID : 55Codec ID/Hint : MP3Duration : 8mn 40sBit rate mode : ConstantBit rate : 96.0 KbpsChannel(s) : 1 channelSampling rate : 48.0 KHzCompression mode : LossyStream size : 5.96 MiB (5%)Alignment : Aligned on interleavesInterleave, duration : 40 ms (1.00 video frame)Interleave, preload duration : 504 ms

Скриншоты

[Профиль] [ЛС]
Кто просматривает тему:

Форум Тема Автор Размер
Фильмы (HD Rips | 720p, 1080p) Дом летающих кинжалов / Shi mian mai fu (2004) BDRip 1080p от R.G. HD-Films | 60 fps sergej644 13.32 GB
Отечественные мультфильмы Когда прилетают аисты (Петр Амиров, Зиновий Ройзман) [1978, кукольный мультфильм , DVB] TorrentFilm 480 MB
Фильмы 2010 года Летающая девушка / Uchar Qiz (Ёлкин Туйчиев / Yolkin Tuychiev) [2010, Узбекистан, фантастика, мелодрама, комедия, TVRip] DVO painkiller 1.46 GB
Зарубежные Летающая машина (Волшебная страна) в 3Д / The Flying Machine 3D (М. Клэпп, Д. Кобеля, Дж. Линдси / M. Clapp, D. Kobiela, G. Lindsey) [2011, Мультфильм, Музыкальный, Приключения, Семейный, BDrip-AVC]... TorrentFilm 7.85 GB
Зарубежные Летающая машина в 3Д / The Flying Machine 3D (Мартин Клэпп, Дорота / Martin Clapp, Dorota) [2011, Мультфильм, Музыкальный, Приключения, Семейный, BDrip, 1080p] OverUnder / Вертикальная стереопара TorrentFilm 11.65 GB
Фильмы 2015 года Море и летающая рыба / The Sea & the Flying Fish (Мехрдад Гафарзаде / Mehrdad Ghafarzadeh) [2015, Иран, драма, SATRip-AVC] MVO (СВ-Дубль) TorrentFilm 1.36 GB
Фильмы 2006-2008 года Пес Снуф и Летающий Фолкерт / Snuf de hond en de jacht op vliegende Volckert (Стивен де Йонг / Steven de Jong) [2008, Нидерланды, Семейный, приключения, DVDRip] VO TorrentFilm 744 MB
Фильмы 2006-2008 года Пес Снуф и Летающий Фолкерт / Snuf de hond en de jacht op vliegende Volckert (Стивен де Йонг / Steven de Jong) [2008, Нидерланды, семейный, приключения, экранизация, DVDRip] VO (viktor 2838)+... TorrentFilm 1.41 GB
Показать сообщения:    

Текущее время: Сегодня 17:41

Часовой пояс: GMT



Вы не можете начинать темы
Вы не можете отвечать на сообщения
Вы не можете редактировать свои сообщения
Вы не можете удалять свои сообщения
Вы не можете голосовать в опросах
Вы не можете прикреплять файлы к сообщениям
Вы не можете скачивать файлы