Лес / The Woods / The Hallow (Корин Харди / Corin Hardy) [2015, Великобритания, США, Ирландия, ужасы, WEB-DLRip] DVO (Sunshine Studio) + Original Eng

 
Автор Сообщение

TorrentFilm ®

Пол:

Стаж: 2 года

Сообщений: 7741



Награды: Нет

Торрент-статистика

Создавать темы 05-Дек-2015 00:09

[Цитировать]

Лес / The Woods / The Hallow
Страна: Великобритания, США, Ирландия
Жанр: ужасы
Год выпуска: 2015
Продолжительность: 01:36:52
Перевод: Любительский (двухголосый закадровый) Sunshine Studio
Cубтитры: нет
Оригинальная аудиодорожка: английский
Режиссер: Корин Харди / Corin Hardy
В ролях: Джозеф Моул, Бояна Новакович, Майкл МакЭлхаттон, Майкл Смайли, Гари Лайдон, Стюарт Грэхэм, Конор Крэйг Стефенс
Описание: Глубоко во тьме уединенных лесов сельской Ирландии обитает древнее зло. Суеверные местные жители боятся проклятых существ, ведущих охоту на заблудших, поэтому эти места хранятся в строжайшем секрете от цивилизации. Но когда защитник природных ресурсов вместе со своей женой и маленьким ребенком приезжает из Лондона, чтобы рассмотреть земли для будущего строительства, то его действия невольно тревожат орду демонических сил…
Сэмпл: http://multi-up.com/1077708
Качество видео: WEB-DLRip
Формат видео: AVI
Видео: Xvid 720x304 24.00fps 1 755 Kbps
Аудио: Dolby AC3 48000Hz stereo 192kbps rus
Аудио 2: Dolby AC3 48000Hz stereo 192kbps eng

MediaInfo

Format : AVI
Format/Info : Audio Video Interleave
File size : 1.46 GiB
Duration : 1h 36mn
Overall bit rate : 2 153 Kbps
Writing application : VirtualDubMod 1.5.10.3 | www.virtualdub-fr.org || (build 2550/release)
Writing library : VirtualDubMod build 2550/release
Video
ID : 0
Format : MPEG-4 Visual
Format profile : AdvancedSimple@L5
Format settings, BVOP : Yes
Format settings, QPel : No
Format settings, GMC : No warppoints
Format settings, Matrix : Custom
Codec ID : XVID
Codec ID/Hint : XviD
Duration : 1h 36mn
Bit rate : 1 755 Kbps
Width : 720 pixels
Height : 304 pixels
Display aspect ratio : 2.35:1
Frame rate : 24.000 fps
Resolution : 24 bits
Colorimetry : 4:2:0
Scan type : Progressive
Bits/(Pixel*Frame) : 0.334
Stream size : 1.19 GiB (82%)
Writing library : XviD 73
Audio #1
ID : 1
Format : AC-3
Format/Info : Audio Coding 3
Codec ID : 2000
Duration : 1h 36mn
Bit rate mode : Constant
Bit rate : 192 Kbps
Channel(s) : 2 channels
Channel positions : L R
Sampling rate : 48.0 KHz
Stream size : 133 MiB (9%)
Alignment : Split accross interleaves
Interleave, duration : 42 ms (1.00 video frame)
Interleave, preload duration : 500 ms
Audio #2
ID : 2
Format : AC-3
Format/Info : Audio Coding 3
Codec ID : 2000
Duration : 1h 36mn
Bit rate mode : Constant
Bit rate : 192 Kbps
Channel(s) : 2 channels
Channel positions : L R
Sampling rate : 48.0 KHz
Stream size : 133 MiB (9%)
Alignment : Split accross interleaves
Interleave, duration : 42 ms (1.00 video frame)
Interleave, preload duration : 500 ms

Скриншот c названием фильма

Скриншоты

[Профиль] [ЛС]
Показать сообщения:    

Текущее время: Сегодня 02:17

Часовой пояс: GMT



Вы не можете начинать темы
Вы не можете отвечать на сообщения
Вы не можете редактировать свои сообщения
Вы не можете удалять свои сообщения
Вы не можете голосовать в опросах
Вы не можете прикреплять файлы к сообщениям
Вы не можете скачивать файлы