Лес / The Woods (2015) WEB-DL 720p | L2

 
Автор Сообщение

BOSS ®

Пол:

Стаж: 2 года 1 месяц

Сообщений: 3718

Откуда: ODESSA



Награды: 20 (Подробнее)

Top Releaser 4 (Количество: 1) Mega Releaser 1 (Количество: 1) Mega Releaser 3 (Количество: 1)
Торрент-статистика

Создавать темы 02-Дек-2015 21:57

[Цитировать]

Информация о фильме
Название: Лес
Оригинальное название: The Woods / The Hallow
Год выхода: 2015
Жанр: ужасы
Режиссер: Корин Харди
В ролях: Джозеф Моул, Бояна Новакович, Майкл МакЭлхаттон, Майкл Смайли, Гари Лайдон, Стюарт Грэхэм, Конор Крэйг Стефенс, Joss Wyre, Шон Тайрел, James Meryk
О фильме: Глубоко во тьме уединенных лесов сельской Ирландии обитает древнее зло. Суеверные местные жители боятся проклятых существ, ведущих охоту на заблудших, поэтому эти места хранятся в строжайшем секрете от цивилизации. Но когда защитник природных ресурсов вместе со своей женой и маленьким ребенком приезжает из Лондона, чтобы рассмотреть земли для будущего строительства, то его действия невольно тревожат орду демонических сил…

Выпущено: Великобритания, США, Ирландия / Altitude Film Entertainment, Bord Scannan na hEireann / Irish Film Board, Electric Shadow Company, The, Hyperion Media Group, Occupant Films
Продолжительность: 01:36:52
Озвучивание: Любительское (двухголосое) [Sunshine Studio]
Файл
Формат: MKV
Качество: WEB-DL 720p
Видео: MPEG-4 AVC, 3982 kb/s, 1280x528
Аудио: Russian: AC3, 192 kb/s (2 ch) / English: AC3, 384 kb/s (6 ch)
Субтитры: English

MI

Format : Matroska
Format version : Version 2
File size : 3.15 GiB
Duration : 1h 36mn
Overall bit rate : 4 651 Kbps
Encoded date : UTC 2015-12-02 21:34:53
Writing application : mkvmerge v7.8.0 ('River Man') 32bit built on Apr 3 2015 12:11:22
Writing library : libebml v1.3.1 + libmatroska v1.4.2
Video
ID : 1
Format : AVC
Format/Info : Advanced Video Codec
Format profile : Main@L3.1
Format settings, CABAC : No
Format settings, ReFrames : 2 frames
Codec ID : V_MPEG4/ISO/AVC
Duration : 1h 36mn
Bit rate : 3 982 Kbps
Width : 1 280 pixels
Height : 528 pixels
Display aspect ratio : 2.40:1
Frame rate mode : Constant
Frame rate : 24.000 fps
Color space : YUV
Chroma subsampling : 4:2:0
Bit depth : 8 bits
Scan type : Progressive
Bits/(Pixel*Frame) : 0.246
Stream size : 2.69 GiB (86%)
Language : English
Default : Yes
Forced : No
Color range : Limited
Color primaries : BT.709
Transfer characteristics : BT.709
Matrix coefficients : BT.709
Audio #1
ID : 2
Format : AC-3
Format/Info : Audio Coding 3
Mode extension : CM (complete main)
Format settings, Endianness : Big
Codec ID : A_AC3
Duration : 1h 36mn
Bit rate mode : Constant
Bit rate : 192 Kbps
Channel(s) : 2 channels
Channel positions : Front: L R
Sampling rate : 48.0 KHz
Bit depth : 16 bits
Compression mode : Lossy
Stream size : 133 MiB (4%)
Language : Russian
Default : Yes
Forced : No
Audio #2
ID : 3
Format : AC-3
Format/Info : Audio Coding 3
Mode extension : CM (complete main)
Format settings, Endianness : Big
Codec ID : A_AC3
Duration : 1h 36mn
Bit rate mode : Constant
Bit rate : 384 Kbps
Channel(s) : 6 channels
Channel positions : Front: L C R, Side: L R, LFE
Sampling rate : 48.0 KHz
Bit depth : 16 bits
Compression mode : Lossy
Stream size : 266 MiB (8%)
Language : English
Default : No
Forced : No
Text
ID : 4
Format : UTF-8
Codec ID : S_TEXT/UTF8
Codec ID/Info : UTF-8 Plain Text
Language : English
Default : No
Forced : No
Menu
00:00:00.000 : en:1
00:10:04.000 : en:2
00:20:14.000 : en:3
00:29:37.000 : en:4
00:41:06.000 : en:5
00:49:21.000 : en:6
00:58:32.000 : en:7
01:09:37.000 : en:8
01:19:58.000 : en:9
01:29:45.000 : en:10

Скриншоты



[Профиль] [ЛС]
Показать сообщения:    

Текущее время: Сегодня 00:11

Часовой пояс: GMT



Вы не можете начинать темы
Вы не можете отвечать на сообщения
Вы не можете редактировать свои сообщения
Вы не можете удалять свои сообщения
Вы не можете голосовать в опросах
Вы не можете прикреплять файлы к сообщениям
Вы не можете скачивать файлы