Лес / La forеt (Арно Деплешен / Arnaud Desplechin) [2014, Франция, трагикомедия, экранизация, DVB] Original (Fre) + Sub (rus)

 
Автор Сообщение

TorrentFilm ®

Пол:

Стаж: 2 года

Сообщений: 7741



Награды: Нет

Торрент-статистика

Создавать темы 02-Янв-2015 00:00

[Цитировать]

Лес
La forêt- Страна: Франция
Жанр: трагикомедия, экранизация
Год выпуска: 2014
Продолжительность: 01:22:09
Перевод: Субтитры (Éclair Group)
Cубтитры: русские
Оригинальная аудиодорожка: французский
Режиссер: Арно Деплешен / Arnaud DesplechinВ ролях: Николя Сильбер / Nicolas Silberg, Мартин Шевалье / Martine Chevallier, Кристиан Блан / Christian Blanc, Клод Матьё / Claude Mathieu, Мишель Фавори / Michel Favory, Дени Подалиде / Denis Podalydès, Лоран Стокер / Laurent Stocker, Лоик Корбери / Loïc Corbery, Мишель Вуйермоз / Michel Vuillermoz, Мишель Робен / Michel Robin
Описание: По одноименной пьесе А.Н. Островского (1870). Экранизация спектакля Comédie-Française с участием актеров театра.
“Лес” открывает десятилетие, когда создавались семейные романы, пронизанные мыслью о нерасторжимой связи семьи и общества. Как и Толстой, Щедрин, Островский замечательно почувствовал, что в пореформенной России “все переворотилось и только укладывается” (Лев Толстой). И именно семья отражает эти перемены в обществе в концентрированном виде. (lit-helper)
Доп. информация: TV5MONDE DVB-S
Участник New York Film Festival 2014.

Качество видео: DVB
Формат видео: MKV
Видео: MPEG Video 2, 704x576@1024x576 (16:9), 25 fps, ~2301 kbps avg, 0.227 bit/pixel
Аудио: Французский (MPEG Audio 2, 2 ch, 48 kHz, ~192.00 kbps avg)
Формат субтитров: hardsub (неотключаемые)

MediaInfo

ОбщееУникальный идентификатор : 249276715772597339057879870688771909907 (0xBB88F2FA7A700AD284EEB12DB4AB2913)Полное имя : E:\My Torrents 2\[apreder]La_foret(2014)DVB.mkvФормат : MatroskaВерсия формата : Version 2Размер файла : 1,46 ГбайтПродолжительность : 1 ч. 22 м.Режим общего битрейта : ПеременныйОбщий поток : 2543 Кбит/секДата кодирования : UTC 2014-12-27 13:44:14Программа кодирования : mkvmerge v7.4.0 ('Circles') 64bit built on Dec 12 2014 12:19:56Библиотека кодирования : libebml v1.3.0 + libmatroska v1.4.1
ВидеоИдентификатор : 1Формат : MPEG VideoВерсия формата : Version 2Профиль формата : Main@MainПараметр BVOP формата : ДаПараметр матрицы формата : ВыборочнаяПараметр GOP формата : M=3, N=15Format_Settings_PictureStructure : FrameИдентификатор кодека : V_MPEG2Идентификатор кодека/Информация : MPEG 1 or 2 VideoПродолжительность : 1 ч. 22 м.Вид битрейта : ПеременныйБитрейт : 2301 Кбит/секШирина : 704 пикселяВысота : 576 пикселейСоотношение сторон : 16:9Режим частоты кадров : ПостоянныйЧастота кадров : 25,000 кадров/секСтандарт вещания : PALЦветовое пространство : YUVСубдискретизация насыщенности : 4:2:0Битовая глубина : 8 битТип развёртки : ЧересстрочнаяПорядок развёртки : Верхнее поле первоеМетод сжатия : С потерямиБит/(Пиксели*Кадры) : 0.227Временной код первого кадра : 00:00:00:00Оригинал временного кода : Group of pictures headerРазмер потока : 1,32 Гбайт (90%)Default : ДаForced : НетGop_OpenClosed_FirstFrame : Closed
АудиоИдентификатор : 2Формат : MPEG AudioВерсия формата : Version 1Профиль формата : Layer 2Идентификатор кодека : A_MPEG/L2Идентификатор кодека/Подсказка : MP2Продолжительность : 1 ч. 22 м.Вид битрейта : ПостоянныйБитрейт : 192 Кбит/секКаналы : 2 каналаЧастота : 48,0 КГцМетод сжатия : С потерямиРазмер потока : 113 Мбайт (8%)Язык : FrenchDefault : ДаForced : Нет

Скриншот c названием фильма

Скриншоты


Резервные скриншоты


-[2'007]
[Профиль] [ЛС]
Показать сообщения:    

Текущее время: Сегодня 02:30

Часовой пояс: GMT



Вы не можете начинать темы
Вы не можете отвечать на сообщения
Вы не можете редактировать свои сообщения
Вы не можете удалять свои сообщения
Вы не можете голосовать в опросах
Вы не можете прикреплять файлы к сообщениям
Вы не можете скачивать файлы