Лес призраков / The Forest (2016) BDRip-AVC | iTunes

 
Автор Сообщение

достали все ®

Пол:

Стаж: 1 год 8 месяцев

Сообщений: 6577



Награды: 12 (Подробнее)

Mega Seeder 4 (Количество: 1) Top Releaser 4 (Количество: 1) Mega Seeder 1 (Количество: 1)
Торрент-статистика

Создавать темы 09-Май-2016 10:39

[Цитировать]

Производство: США / Lava Bear Films, AI-Film
Жанр: Ужасы, Детектив
Режиссер: Джейсон Зада
Актеры: Натали Дормер, Оуэн Мэкен, Стефани Вогт, Осаму Танпопо, Ясуо Тобисима, Ибуки Канеда, Акико Ивасе, Кикуо Ичикава, Норико Сакура, Йозеф Аоки, Юхо Ямасита, Тейлор Кинни, Ген Сето, Терри Диаб, Надя Мацалика, Лидия Антоник, Такако Акаши, Юрири Нака, Юкиёси Одзава, Неманья Наумоски, Талес Ямамото, Рина Такасаки
Описание: Юная американка Сара отправляется на поиски сестры-близняшки, которая таинственным образом исчезла на японском острове Хонсю. Поиски приводят к подножью горы Фудзи, в таинственный лес, который пользуется дурной славой. Сара не подозревала, что она вступает в мрачный мир призраков, злых и измученных душ, которые охотятся на любого, кто блуждает по их мрачному лесу…

Продолжительность: 01:33:17
Качество видео: BDRip-AVC Сэмпл
Перевод: Дублированный (iTunes)
Субтитры: Отсутствуют
Видео: AVC/H.264, 2800 Kbps, 1024x554
Аудио: Русский AC3 5.1, 384 Kbps, 48.0 KHz

MediaInfo

Общее
Полное имя : Лес призраков.mkv
Формат : Matroska
Версия формата : Version 1
Размер файла : 2,07 Гбайт
Продолжительность : 1 ч. 33 м.
Общий поток : 3182 Кбит/сек
Дата кодирования : UTC 2016-03-31 13:07:09
Программа кодирования : mkvmerge v2.4.1 ('Use Me') built on Dec 5 2008 18:30:05
Библиотека кодирования : libebml v0.7.7 + libmatroska v0.8.1
Видео
Идентификатор : 1
Формат : AVC
Формат/Информация : Advanced Video Codec
Профиль формата : High@L4.1
Параметр CABAC формата : Да
Параметр ReFrames формата : 10 кадров
Идентификатор кодека : V_MPEG4/ISO/AVC
Продолжительность : 1 ч. 33 м.
Битрейт : 2800 Кбит/сек
Ширина : 1024 пикселя
Высота : 554 пикселя
Соотношение сторон : 1,85:1
Режим частоты кадров : Постоянный
Частота кадров : 23,976 (24000/1001) кадра/сек
Цветовое пространство : YUV
Субдискретизация насыщенности : 4:2:0
Битовая глубина : 8 бит
Тип развёртки : Прогрессивная
Бит/(Пиксели*Кадры) : 0.206
Размер потока : 1,78 Гбайт (86%)
Заголовок : Лес призраков (2016)
Библиотека кодирования : x264 core 148 r2638 7599210
Настройки программы : cabac=1 / ref=10 / deblock=1:-3:-3 / analyse=0x3:0x133 / me=umh / subme=10 / psy=1 / psy_rd=1.00:0.10 / mixed_ref=1 / me_range=48 / chroma_me=1 / trellis=2 / 8x8dct=1 / cqm=0 / deadzone=21,11 / fast_pskip=0 / chroma_qp_offset=-3 / threads=6 / lookahead_threads=1 / sliced_threads=0 / nr=0 / decimate=1 / interlaced=0 / bluray_compat=0 / constrained_intra=0 / bframes=5 / b_pyramid=2 / b_adapt=2 / b_bias=0 / direct=3 / weightb=1 / open_gop=0 / weightp=2 / keyint=240 / keyint_min=22 / scenecut=40 / intra_refresh=0 / rc_lookahead=40 / rc=2pass / mbtree=1 / bitrate=2800 / ratetol=1.0 / qcomp=0.60 / qpmin=10 / qpmax=51 / qpstep=4 / cplxblur=20.0 / qblur=0.5 / ip_ratio=1.40 / aq=1:1.00
Язык : English
Default : Да
Forced : Нет
Аудио
Идентификатор : 2
Формат : AC-3
Формат/Информация : Audio Coding 3
Расширение режима : CM (complete main)
Параметр Endianness формата : Big
Идентификатор кодека : A_AC3
Продолжительность : 1 ч. 33 м.
Вид битрейта : Постоянный
Битрейт : 384 Кбит/сек
Каналы : 6 каналов
Расположение каналов : Front: L C R, Side: L R, LFE
Частота : 48,0 КГц
Частота кадров : 31,250 кадров/сек (1536 spf)
Метод сжатия : С потерями
Размер потока : 256 Мбайт (12%)
Заголовок : AC3 (Дублированный) iTunes
Язык : Russian
Default : Да
Forced : Нет

Дополнительная информация

» Как утверждает испанский комедийный актёр Хуан Торрес, сюжет, название и общий настрой фильма очень напоминают «El bosque de los suicidas» («Лес самоубийц»), книгу комиксов, которую он вместе с Габриэльем Эрнандесом издал в 2011 году.
» В перерыве между съёмками Натали Дормер попросила своего водителя-японца отвезти её в «Лес самоубийц». Она отошла от тропы на несколько шагов, чтобы сделать снимок, а японец сходить с тропы отказался категорически.
» Дебют Юкиёси Одзавы в англоязычном кинематографе.
» Аокигахара, известный также под названиями «Лес самоубийц» и «Море деревьев», представляет собой лесной массив площадью 35 квадратных километров у северо-западного подножья горы Фудзи в Японии. Этот лес традиционно считается местом обитания демонов и призраков и пользуется популярностью у японцев, решивших свести счёты с жизнью. При входе в лес установлен плакат с просьбой помышляющим о том, чтобы покончить с собой, обратиться в Ассоциацию по предотвращению самоубийств. Это место уже послужило темой двух фильмов — «Shawn4Ever» (2012) и «Море деревьев» (2015). Оба фильма вышли на экраны до выхода «Леса призраков».
» Режиссёрский дебют Джейсона Зада в игровом кино.
Скриншоты:

Скриншоты

[Профиль] [ЛС]
Кто просматривает тему:

Показать сообщения:    

Текущее время: Сегодня 08:14

Часовой пояс: GMT



Вы не можете начинать темы
Вы не можете отвечать на сообщения
Вы не можете редактировать свои сообщения
Вы не можете удалять свои сообщения
Вы не можете голосовать в опросах
Вы не можете прикреплять файлы к сообщениям
Вы не можете скачивать файлы