(Шансон) Лесоповал - Серия «SUPER HITS COLLECTION. 20 лучших песен» - 2013, FLAC (image+.cue), lossless

 
Автор Сообщение

sergej644 ®

Пол:

Стаж: 4 года 11 месяцев

Сообщений: 6041

Откуда: Soviet Union



Награды: Нет

Торрент-статистика

Создавать темы 14-Июл-2015 04:22

[Цитировать]

Лесоповал / Серия «SUPER HITS COLLECTION. 20 лучших песен»
Жанр: Шансон
Страна-производитель диска: Россия
Год издания: 2013
Издатель (лейбл): Классик Компани
Номер по каталогу: CC CD 27/13
Страна: Россия
Аудиокодек: FLAC (*.flac)
Тип рипа: image+.cue
Битрейт аудио: lossless
Продолжительность: 01:15:27
Источник (релизер): maichka
Наличие сканов в содержимом раздачи: да
Треклист:
01. Столыпинский вагон
02. Форточки-лопатники
03. Когда я приду
04. Птичий рынок
05. Три татуировочки
06. Я куплю тебе дом
07. Черные пальчики
08. Кореша
09. Брачная газета
10. Год за два
11. Заповедь
12. Письмо матери
13. Топталочка
14. Скоро мне выходить
15. Б л я
16. Сентиментальный вальс
17. Блины
18. Не думай
19. Новоселье
20. Молитва

Лог создания рипа

Exact Audio Copy V1.0 beta 3 from 29. August 2011
Отчёт EAC об извлечении, выполненном 7. октября 2013, 22:39
Лесоповал  / Super Hits Collection
Дисковод: Optiarc DVD RW AD-5280S   Adapter: 2  ID: 1
Режим чтения                 : Достоверность
Использование точного потока : Да
Отключение кэша аудио        : Да
Использование указателей C2  : Нет
Коррекция смещения при чтении                     : 48
Способность читать области Lead-in и Lead-out     : Нет
Заполнение пропущенных сэмплов тишиной            : Да
Удаление блоков с тишиной в начале и конце        : Нет
При вычислениях CRC использовались нулевые сэмплы : Да
Интерфейс                                         : Встроенный Win32-интерфейс для Win NT/2000
Выходной формат          : Пользовательский кодировщик
Выбранный битрейт        : 896 kBit/s
Качество                 : Высокий
Добавление ID3-тега      : Нет
Утилита сжатия           : C:\Program Files\EACPortable\App\EAC\FLAC\flac.exe
Дополнительные параметры : -6 -V -T "ARTIST=%artist%" -T "TITLE=%title%" -T "ALBUM=%albumtitle%" -T "DATE=%year%" -T "TRACKNUMBER=%tracknr%" -T "GENRE=%genre%" -T "COMMENT=%comment%" %hascover%--picture="%coverfile%"%hascover% %source% -o %dest%
TOC извлечённого CD
     Трек |   Старт  | Длительность | Начальный сектор | Конечный сектор
    ---------------------------------------------------------------------
       1  |  0:00.00 |    3:21.17   |           0      |      15091
       2  |  3:21.17 |    3:46.16   |       15092      |      32057
       3  |  7:07.33 |    3:30.39   |       32058      |      47846
       4  | 10:37.72 |    5:10.02   |       47847      |      71098
       5  | 15:47.74 |    2:46.36   |       71099      |      83584
       6  | 18:34.35 |    4:16.73   |       83585      |     102857
       7  | 22:51.33 |    3:42.20   |      102858      |     119527
       8  | 26:33.53 |    4:04.55   |      119528      |     137882
       9  | 30:38.33 |    3:14.01   |      137883      |     152433
      10  | 33:52.34 |    4:34.39   |      152434      |     173022
      11  | 38:26.73 |    3:25.44   |      173023      |     188441
      12  | 41:52.42 |    4:39.49   |      188442      |     209415
      13  | 46:32.16 |    2:58.30   |      209416      |     222795
      14  | 49:30.46 |    3:15.71   |      222796      |     237491
      15  | 52:46.42 |    3:45.19   |      237492      |     254385
      16  | 56:31.61 |    4:14.20   |      254386      |     273455
      17  | 60:46.06 |    3:25.25   |      273456      |     288855
      18  | 64:11.31 |    4:47.23   |      288856      |     310403
      19  | 68:58.54 |    2:29.59   |      310404      |     321637
      20  | 71:28.38 |    3:58.70   |      321638      |     339557
Характеристики диапазона извлечения и сообщения об ошибках
Выбранный диапазон
     Имя файла G:\Дискографии (Lossless)\Лесоповал\Лесоповал  - Super Hits Collection.wav
     Пиковый уровень 96.9 %
     Скорость извлечения 4.5 X
     Качество диапазона 100.0 %
     CRC теста C4A436A8
     CRC копии C4A436A8
     Копирование... OK
Ошибок не произошло
Конец отчёта

Лог проверки качества

AUDIOCHECKER v2.0 beta (build 457) - by Dester - opdester@freemail.hu
~~~~~~~~~~~~~~~~~~~~~~~~~~~~~~~~~~
-=== НЕ РЕДАКТИРУЙТЕ ЭТОТ ФАЙЛ! ===-
Путь: ...\Лесоповал – Super Hits Collection (2013)
1 -=- Лесоповал  - Super Hits Collection.flac -=- CDDA (100%)
5994980

Скриншот спектра частот

[Профиль] [ЛС]

Создавать темы 13-Авг-2015 11:04 (спустя 30 дней)

Топик был перенесен из форума Шансон и авторская песня в форум Сhanson
sergej644
 
Кто просматривает тему:

Показать сообщения:    

Текущее время: Сегодня 12:52

Часовой пояс: GMT



Вы не можете начинать темы
Вы не можете отвечать на сообщения
Вы не можете редактировать свои сообщения
Вы не можете удалять свои сообщения
Вы не можете голосовать в опросах
Вы не можете прикреплять файлы к сообщениям
Вы не можете скачивать файлы