Лесные сказки. Часть 2. Сборник мультфильмов (1946-1951) DVDRip-AVC от Тorrent-Хzona

 
Автор Сообщение

Белочка ®

Пол:

Стаж: 5 лет 1 месяц

Сообщений: 2089



Награды: 1 (Подробнее)

Girls (Количество: 1)
Торрент-статистика

Создавать темы 25-Окт-2014 22:25

[Цитировать]

Инфомация о фильме
Оригинальное название: Лесные сказки. Часть 2. Сборник мультфильмов
Год выхода: 1946-1951
Жанр: Мультфильм
Режиссер: Ольга Ходатаева, Борис Дежкин, Владимир Полковников, Дмитрий Бабиченко, Леонид Амальрик, Геннадий Филиппов, Пантелеймон Сазонов, Евгений Райковский
О фильме
Сборник рисованных отечественных мультипликационных фильмов для детей.

[color=DarkOrange]Список мультфильмов:[/color]

01. Таежная сказка - 1951 г. Две простодушные таежные расомахи собрались переезжать на новые места. Прикинувшись их другом, Лиса овладевает лодкой с пожитками. Умный и благородный Дятел выручает попавших в беду росомах. Едва не утонув, Лиса спасается бегством. По народной эвенкийской сказке.
02. Лиса-строитель - 1950 г. По басне Крылова.
03. Олень и волк - 1950 г. Упавшее дерево придавило волка. Добродушный олень помогает ему выбраться. Вместо благодарности волк нападает на оленя. В качестве судьи между волком и оленем выступает медведь. ( По сюжету эстонской сказки.)
04. Лев и заяц - 1949 г. Это простой и занимательный рассказ о жестоком и жадном льве и умном, находчивом зайце, который победил царя зверей и спас от гибели своих товарищей.
05. Крепыш - 1950 г. Мультипликационный фильм о том, как зимой в неравной схватке с Волком погибает мать щенка Крепыша. Осиротевшего, полузамерзшего Крепыша приютила Зайчиха. Всю зиму проводит щенок в семье зайцев, храбро защищая своих новых друзей от лесных хищников. Весной подросший Крепыш спасает зайцев во время половодья, затем мужественно отражает нападение голодного Волка, а, вернувшись к хозяину, подкармливает зайчат морковкой .
06. Павлиний хвост - 1946 г. Мультипликационный фильм по мотивам одноименной сказки Корнея Чуковского о завистливом медведе, который потребовал от доктора Айболита пришить ему павлиний хвост и отправился в лес на прогулку. Павлиний хвост выдает охотникам местопребывания медведя.
07. Чемпион - 1948 г. – Мультипликационный фильм о том, как чемпион лыжного спорта Серый Волк самонадеяно пренебрегает тренировками. Во время очередных соревнований он уступает первенство хорошо подготовленному Бобику и даже Барсуку. Звери восторжено приветствуют нового чемпиона – Бобика.
Страна: СССР
Студия: Союзмультфильм
Продолжительность: ~ 01:12:00
Перевод: Не требуется
Файл
Формат: MKV
Качество: DVDRip-AVC
Видео: MPEG4 AVC, 768 x 576, 25,000 fps, 1650 - 1844 Кбит/сек
Звук: AC-3, 2 ch, 192 Кб/сек
Субтитры: Нет

MediaInfo:

General
Unique ID : 212881682213829956777418455881333024078 (0xA0278548942AD71A86B24682820B254E)
Complete name : D:DownloadsLesnie.Skazki.2. 1946-1951.x264.DVDRip.(AVC).by.Тorrent-ХzonaКрепыш.x264.DVDRip.(AVC).by.Тorrent-Хzona.mkv
Format : Matroska
Format version : Version 2
File size : 256 MiB
Duration : 19mn 26s
Overall bit rate : 1 844 Kbps
Encoded date : UTC 2013-05-31 07:52:39
Writing application : mkvmerge v6.1.0 ('Old Devil') built on Mar 4 2013 09:10:42
Writing library : libebml v1.3.0 + libmatroska v1.4.0
Video
ID : 1
Format : AVC
Format/Info : Advanced Video Codec
Format profile : High@L4.1
Format settings, CABAC : Yes
Format settings, ReFrames : 6 frames
Codec ID : V_MPEG4/ISO/AVC
Duration : 19mn 26s
Bit rate : 1 650 Kbps
Width : 768 pixels
Height : 576 pixels
Display aspect ratio : 4:3
Frame rate mode : Constant
Frame rate : 25.000 fps
Color space : YUV
Chroma subsampling : 4:2:0
Bit depth : 8 bits
Scan type : Progressive
Bits/(Pixel*Frame) : 0.149
Stream size : 225 MiB (88%)
Writing library : x264 core 130 r2273 b3065e6
Encoding settings : cabac=1 / ref=6 / deblock=1:1:1 / analyse=0x3:0x111 / me=umh / subme=9 / psy=1 / psy_rd=0.40:0.00 / mixed_ref=1 / me_range=32 / chroma_me=1 / trellis=2 / 8x8dct=1 / cqm=0 / deadzone=21,11 / fast_pskip=0 / chroma_qp_offset=-2 / threads=3 / lookahead_threads=1 / sliced_threads=0 / nr=0 / decimate=1 / interlaced=0 / bluray_compat=0 / constrained_intra=0 / bframes=5 / b_pyramid=2 / b_adapt=0 / b_bias=0 / direct=1 / weightb=1 / open_gop=0 / weightp=2 / keyint=250 / keyint_min=25 / scenecut=40 / intra_refresh=0 / rc_lookahead=50 / rc=2pass / mbtree=1 / bitrate=1650 / ratetol=1.0 / qcomp=0.60 / qpmin=0 / qpmax=69 / qpstep=4 / cplxblur=20.0 / qblur=0.5 / ip_ratio=1.40 / aq=1:0.60
Default : Yes
Forced : No
Audio
ID : 2
Format : AC-3
Format/Info : Audio Coding 3
Mode extension : CM (complete main)
Format settings, Endianness : Big
Codec ID : A_AC3
Duration : 19mn 26s
Bit rate mode : Constant
Bit rate : 192 Kbps
Channel(s) : 2 channels
Channel positions : Front: L R
Sampling rate : 48.0 KHz
Bit depth : 16 bits
Compression mode : Lossy
Stream size : 26.7 MiB (10%)
Default : Yes
Forced : No

Скриншоты

Релиз от: &
[Профиль] [ЛС]
Показать сообщения:    

Текущее время: Сегодня 22:23

Часовой пояс: GMT



Вы не можете начинать темы
Вы не можете отвечать на сообщения
Вы не можете редактировать свои сообщения
Вы не можете удалять свои сообщения
Вы не можете голосовать в опросах
Вы не можете прикреплять файлы к сообщениям
Вы не можете скачивать файлы