Лесные сказки. Часть 1. Сборник мультфильмов (1946-1953) DVDRip-AVC от Тorrent-Хzona

 
Автор Сообщение

Белочка ®

Пол:

Стаж: 5 лет 1 месяц

Сообщений: 2089



Награды: 1 (Подробнее)

Girls (Количество: 1)
Торрент-статистика

Создавать темы 25-Окт-2014 22:25

[Цитировать]

Инфомация о фильме
Оригинальное название: Лесные сказки. Часть 1. Сборник мультфильмов
Год выхода: 1946-1953
Жанр: Мультфильм
Режиссер: Ольга Ходатаева, Борис Дежкин, Владимир Полковников, Дмитрий Бабиченко, Леонид Амальрик, Геннадий Филиппов, Пантелеймон Сазонов, Евгений Райковский
О фильме
Сборник рисованных отечественных мультипликационных фильмов для детей.

[color=DarkOrange]Список мультфильмов:[/color]

1. Сказка старого дуба
2. Лесные путешественники
3. Серая шейка
4. Кукушка и скворец
5. Лиса и дрозд
6. Ворона и лисица, кукушка и петух
7. Высокая горка
Страна: СССР
Студия: Союзмультфильм
Продолжительность: 01:44:10
Перевод: Не требуется
Файл
Формат: MKV
Качество: DVDRip-AVC
Видео: MPEG4 AVC, 768 x 576, 25,000 fps, 1750 - 1945 Кбит/сек
Звук: AC-3, 2 ch, 192 Кб/сек
Субтитры: Нет

MediaInfo:

D:DownloadsLesnie.Skazki.1.1946-1953.x264.DVDRip.(AVC).by.Тorrent-ХzonaКукушка и скворец.x264.DVDRip.(AVC).by.Тorrent-Хzona.mkv
Format : Matroska
Format version : Version 2
File size : 140 MiB
Duration : 10mn 4s
Overall bit rate : 1 945 Kbps
Encoded date : UTC 2013-05-30 02:01:30
Writing application : mkvmerge v6.1.0 ('Old Devil') built on Mar 4 2013 09:10:42
Writing library : libebml v1.3.0 + libmatroska v1.4.0
Video
ID : 1
Format : AVC
Format/Info : Advanced Video Codec
Format profile : High@L4.1
Format settings, CABAC : Yes
Format settings, ReFrames : 6 frames
Codec ID : V_MPEG4/ISO/AVC
Duration : 10mn 4s
Bit rate : 1 750 Kbps
Width : 768 pixels
Height : 576 pixels
Display aspect ratio : 4:3
Frame rate mode : Constant
Frame rate : 25.000 fps
Color space : YUV
Chroma subsampling : 4:2:0
Bit depth : 8 bits
Scan type : Progressive
Bits/(Pixel*Frame) : 0.158
Stream size : 123 MiB 88
Writing library : x264 core 130 r2273 b3065e6
Encoding settings : cabac=1 / ref=6 / deblock=1:1:1 / analyse=0x3:0x111 / me=umh / subme=9 / psy=1 / psy_rd=0.40:0.00 / mixed_ref=1 / me_range=32 / chroma_me=1 / trellis=2 / 8x8dct=1 / cqm=0 / deadzone=21,11 / fast_pskip=0 / chroma_qp_offset=-2 / threads=3 / lookahead_threads=1 / sliced_threads=0 / nr=0 / decimate=1 / interlaced=0 / bluray_compat=0 / constrained_intra=0 / bframes=5 / b_pyramid=2 / b_adapt=0 / b_bias=0 / direct=1 / weightb=1 / open_gop=0 / weightp=2 / keyint=250 / keyint_min=25 / scenecut=40 / intra_refresh=0 / rc_lookahead=50 / rc=2pass / mbtree=1 / bitrate=1750 / ratetol=1.0 / qcomp=0.60 / qpmin=0 / qpmax=69 / qpstep=4 / cplxblur=20.0 / qblur=0.5 / ip_ratio=1.40 / aq=1:0.60
Default : Yes
Forced : No
Audio
ID : 2
Format : AC-3
Format/Info : Audio Coding 3
Mode extension : CM (complete main)
Format settings, Endianness : Big
Codec ID : A_AC3
Duration : 10mn 4s
Bit rate mode : Constant
Bit rate : 192 Kbps
Channel(s) : 2 channels
Channel positions : Front: L R
Sampling rate : 48.0 KHz
Bit depth : 16 bits
Compression mode : Lossy
Stream size : 13.8 MiB (10%)
Default : Yes
Forced : No

Скриншоты

Релиз от: &
[Профиль] [ЛС]
Показать сообщения:    

Текущее время: Сегодня 00:10

Часовой пояс: GMT



Вы не можете начинать темы
Вы не можете отвечать на сообщения
Вы не можете редактировать свои сообщения
Вы не можете удалять свои сообщения
Вы не можете голосовать в опросах
Вы не можете прикреплять файлы к сообщениям
Вы не можете скачивать файлы