Лесная история (Лев Позднеев) [1956, СССР, Рисованный мультфильм, WEBRip]

 
Автор Сообщение

TorrentFilm ®

Пол:

Стаж: 2 года

Сообщений: 7741



Награды: Нет

Торрент-статистика

Создавать темы 10-Фев-2016 00:08

[Цитировать]

Лесная история
Страна: СССР
Жанр: Рисованный мультфильм
Продолжительность: 00:09:24
Год выпуска: 1956
Русские субтитры: нет
Режиссёр: Лев Позднеев
Описание: Сказка-шутка для малышей о необходимости чистить зубы
Доп. информация: "Союзмультфильм"
сценаристы Александр Иванов, Сергей Скворцов
художники-постановщики М. Скобелев, Валентин Лалаянц
xудожники Дмитрий Анпилов, Лев Аркадьев, И. Прокофьева, Е. Танненберг
аниматоры Дмитрий Белов, Фаина Епифанова, Елизавета Комова, Борис Корнеев, Татьяна Федорова, Татьяна Таранович, Александр Пекарь, Лидия Резцова
оператор Елена Петрова
композитор Моисей Вайнберг
звукооператор Борис Фильчиков
текст песен (стихов) Лев Позднеев
Раздача группы:
Качество: WEBRip
Формат: AVI
Видео: 704x528 (1.33:1), 25 fps, XviD build 50 ~1594 kbps avg, 0.17 bit/pixel
Аудио: 44.100 kHz, MPEG Layer 3, 2 ch, ~192.00 kbps avg
Субтитры: нет

Подробные технические данные

Format : AVIFormat/Info : Audio Video InterleaveFile size : 121 MiBDuration : 9mn 24sOverall bit rate : 1 799 KbpsWriting application : MEncoder SVN-r30881(20100311-gcc4.3.3)Writing library : MPlayer
VideoID : 0Format : MPEG-4 VisualFormat profile : Advanced Simple@L5Format settings, BVOP : 2Format settings, QPel : NoFormat settings, GMC : No warppointsFormat settings, Matrix : Default (H.263)Codec ID : XVIDCodec ID/Hint : XviDDuration : 9mn 24sBit rate : 1 595 KbpsWidth : 704 pixelsHeight : 528 pixelsDisplay aspect ratio : 5:4Original display aspect ratio : 4:3Frame rate : 25.000 fpsColor space : YUVChroma subsampling : 4:2:0Bit depth : 8 bitsScan type : ProgressiveCompression mode : LossyBits/(Pixel*Frame) : 0.172Stream size : 107 MiB (89%)Writing library : XviD 1.2.1 (UTC 2008-12-04)
AudioID : 1Format : MPEG AudioFormat version : Version 1Format profile : Layer 3Mode : Joint stereoMode extension : MS StereoCodec ID : 55Codec ID/Hint : MP3Duration : 9mn 24sBit rate mode : ConstantBit rate : 192 KbpsChannel(s) : 2 channelsSampling rate : 44.1 KHzCompression mode : LossyDelay relative to video : 40msStream size : 12.9 MiB (11%)Alignment : Aligned on interleavesInterleave, duration : 26 ms (0.65 video frame)Interleave, preload duration : 522 msWriting library : LAME3.98
[Профиль] [ЛС]
Показать сообщения:    

Текущее время: Сегодня 04:27

Часовой пояс: GMT



Вы не можете начинать темы
Вы не можете отвечать на сообщения
Вы не можете редактировать свои сообщения
Вы не можете удалять свои сообщения
Вы не можете голосовать в опросах
Вы не можете прикреплять файлы к сообщениям
Вы не можете скачивать файлы