Лермонтов (Максим Беспалый) [2014 г., Историко-биографический, HDTV 1080i]

 
Автор Сообщение

TorrentFilm ®

Пол:

Стаж: 2 года

Сообщений: 7741



Награды: Нет

Торрент-статистика

Создавать темы 08-Янв-2015 00:15

[Цитировать]

Лермонтов
Год выпуска: 2014
Страна: Россия
Студия: Первый HD
Жанр: Историко-биографический
Продолжительность: 01:29:50
Перевод: Не требуется
Русские субтитры: есть
Режиссер: М. Беспалый
Описание: Михаил Лермонтов (1814-1841), величайший русский поэт и писатель. Его роман «Герой нашего времени» признан одной из самых читаемых книг в России. Его произведения во все времена были особенно актуальны и популярны среди молодых людей. Стихи и проза Лермонтова переведены на множество языков и по праву принадлежат к классике мировой литературы. Лермонтов погиб на дуэли при странных обстоятельствах в 27 лет. Он вырос без родителей, дважды был всерьез влюблен, был окружен множеством друзей, прошел войну, но всю жизнь оставался крайне одиноким. Фильм расскажет о том, как события жизни Лермонтова тесно переплетены с сюжетами его произведений. Реальная жизнь поэта незримо переходит в его вымышленный мир, а герои и события его произведений дают ответы на биографические загадки в судьбе Лермонтова. Фильм приурочен к 200-летию со дня рождения Михаила Лермонтова.
Серия 1
Судьба Михаила Лермонтова с детства была отмечена тревожными предсказаниями и трагическими событиями. Акушерка, принимавшая роды, заявила – "Много я детей перевидала, а этот своей смертью не умрет". Когда мальчику исполнилось три года, от чахотки скоропостижно скончалась его мать. Детство Лермонтова прошло в пензенском имении бабушки в комфортной обстановке, но без семейного уюта. Мальчик часто болел, постельный режим не оставлял выбора: в своем воображении Лермонтов рисовал несуществующие миры. Капризный барчонок превратился во впечатлительного и импульсивного подростка, внутри которого клокотал мир страстей. Казалось бы, впереди блестящее будущее московского бонвивана, но снова трагедия – смерть отца. А за ней – ошеломительное решение о перемене судьбы.
Серия 2.
20-летний Лермонтов, красавец-корнет, недавно окончил военное училище. По Петербургу ходят слухи о том, что он сводит женщин с ума, а потом оставляет их – "потому что романы теперь надо не делать, а писать!". Как гром среди ясного неба звучит выстрел Дантеса в Пушкина - кумира Михаила. Эхом по Петербургу проносятся копии стихотворения Лермонтова "На смерть поэта". Дело принимает неожиданный оборот, и молодой поэт оказывается в ссылке на Кавказе. Следующие пять лет проходят в скитаниях по Петербургу и Кавказу, от ссылки к ссылке. Пять лет, давшие литературному миру шедевры прозы и поэзии. Пять лет кипучей жизни и войны с собой и всем миром. Пять лет до рокового выстрела, загадку которого литературоведы и биографы пытаются разгадать до сих пор…
Доп. информация: Раздача скачана с кинозала у пользователя Мастер5.
Сэмпл: https://www.sendspace.com/file/ogyrxw
Тип релиза: HDTV 1080i
Контейнер: TS
Видео: MPEG-4 AVC, 7785 Кбит/с, 1920x1080, 25 кадров/сек
Аудио: Русский, 224 Кбит/сек, 48,0 КГц, 2 канала, MP2
Аудио 2: Русский, 384 Кбит/сек, 48,0 КГц, 16 бит, 6 каналов, AC-3
Формат субтитров: Teletext Sub page 888

MediaInfo

ОбщееИдентификатор : 16 (0x10)Полное имя : F:\MONAR.RU\Видео\История России и мира\Лермонтов.tsФормат : MPEG-TSРазмер файла : 5,55 ГбайтПродолжительность : 1 ч. 29 м.Режим общего битрейта : ПеременныйОбщий поток : 8836 Кбит/сек
ВидеоИдентификатор : 1902 (0x76E)Идентификатор меню : 92 (0x5C)Формат : AVCФормат/Информация : Advanced Video CodecПрофиль формата : High@L4.0Параметр CABAC формата : ДаПараметр ReFrames формата : 3 кадраПараметр GOP формата : M=4, N=32Идентификатор кодека : 27Продолжительность : 1 ч. 29 м.Битрейт : 7785 Кбит/секШирина : 1920 пикселейВысота : 1080 пикселейСоотношение сторон : 16:9Частота кадров : 25,000 кадров/секСтандарт вещания : PALЦветовое пространство : YUVСубдискретизация насыщенности : 4:2:0Битовая глубина : 8 битТип развёртки : ЧересстрочнаяПорядок развёртки : Верхнее поле первоеБит/(Пиксели*Кадры) : 0.150Размер потока : 4,89 Гбайт (88%)Основные цвета : BT.709Характеристики трансфера : BT.709Коэффициенты матрицы : BT.709
Аудио #1Идентификатор : 2902 (0xB56)Идентификатор меню : 92 (0x5C)Формат : MPEG AudioВерсия формата : Version 1Профиль формата : Layer 2Идентификатор кодека : 4Продолжительность : 1 ч. 29 м.Вид битрейта : ПостоянныйБитрейт : 224 Кбит/секКаналы : 2 каналаЧастота : 48,0 КГцМетод сжатия : С потерямиЗадержка видео : 32 мс.Размер потока : 144 Мбайт (3%)Язык : stdЯзык, дополнительно : Clean effects
Аудио #2Идентификатор : 3902 (0xF3E)Идентификатор меню : 92 (0x5C)Формат : AC-3Формат/Информация : Audio Coding 3Расширение режима : CM (complete main)Параметр Endianness формата : BigИдентификатор кодека : 6Продолжительность : 1 ч. 29 м.Вид битрейта : ПостоянныйБитрейт : 384 Кбит/секКаналы : 6 каналовРасположение каналов : Front: L C R, Side: L R, LFEЧастота : 48,0 КГцБитовая глубина : 16 битМетод сжатия : С потерямиЗадержка видео : 146 мс.Размер потока : 247 Мбайт (4%)Язык : stdЯзык, дополнительно : Clean effects
ТекстИдентификатор : 33 (0x21)-100Идентификатор меню : 92 (0x5C)Формат : Teletext
МенюИдентификатор : 902 (0x386)Идентификатор меню : 92 (0x5C)Продолжительность : 1 ч. 29 м.Список : 1902 (0x76E) (AVC) / 2902 (0xB56) (MPEG Audio, std) / 3902 (0xF3E) (AC-3, std) / 33 (0x21) ()Язык : / std / std

Скриншоты

[Профиль] [ЛС]
Кто просматривает тему:

Форум Тема Автор Размер
Фильмы (HD Rips | 720p, 1080p) Дуэль. Пушкинъ – Лермонтовъ (Денис Банников) [2014, Россия, фэнтези, драма, HDTV 1080i] TorrentFilm 6.09 GB
Фильмы (HD Rips | 720p, 1080p) Дуэль. Пушкинъ – Лермонтовъ (Денис Банников) [2014, Россия, фэнтези, драма, HDTV 1080i] + Original Rus TorrentFilm 9.86 GB
Фильмы 2014 года Дуэль. Пушкинъ – Лермонтовъ (Денис Банников) [2014, фэнтези, драма] HDTVRip достали все 2.05 GB
Фильмы (DVD 5/9) Лермонтов (Альберт Гендельштейн) [1943 г., Исторический, DVD5] TorrentFilm 4.26 GB
Фильмы 2014 года Лермонтов (Максим Беспалый) [Драма, биография, документальный. 2014] HDTVRip BOSS 1.46 GB
Отечественная Классика Михаил Юрьевич Лермонтов - Демон [Алла Демидова, 2013] Magnat 89 MB
Фильмы 2015 года Один и два / One and Two (Эндрю Дроз Палермо / Andrew Droz Palermo) [2015, США, фэнтези, триллер, драма, WEB-DLRip] TorrentFilm 734 MB
Футбол Футбол. Чемпионат Италии 2014-15. 18-й тур. Фиорентина — Палермо [11.01] (2015) HDRip sergej644 1.44 GB
Показать сообщения:    

Текущее время: Сегодня 22:41

Часовой пояс: GMT



Вы не можете начинать темы
Вы не можете отвечать на сообщения
Вы не можете редактировать свои сообщения
Вы не можете удалять свои сообщения
Вы не можете голосовать в опросах
Вы не можете прикреплять файлы к сообщениям
Вы не можете скачивать файлы