Лермонтов (Максим Беспалый) [Драма, биография, документальный. 2014] HDTVRip

 
Автор Сообщение

BOSS ®

Пол:

Стаж: 2 года 1 месяц

Сообщений: 3718

Откуда: ODESSA



Награды: 20 (Подробнее)

Mega Releaser 2 (Количество: 1) Top Keeper 4 (Количество: 1) Top Keeper 3 (Количество: 1)
Торрент-статистика

Создавать темы 06-Янв-2015 20:23

[Цитировать]

Информация о фильме
Название: Лермонтов
Год выхода: 2014
Жанр: Драма, биография, документальный
Режиссёр: Максим Беспалый
В ролях: Владимир Аблогин, Анна Леванова, Илья Ловкий, Семён Сердин, Василий Цыганцов, Александр Лимин, Павел Рассомахин, Сесиль Свердлова, Людмила Гамуряк, Данила Колбасеев
О фильме:
200 лет назад родился русский поэт Михаил Лермонтов. Юноша с огромными глазами: его портрет известен каждому со времён школы. Лермонтов писал стихи, воевал, влюблялся и был убит на дуэли. Короткая жизнь в 27 лет. Но что мы знаем о настоящем Лермонтове? Биографический документально-игровой фильм подробно рассказывает о жизни незаурядного человека и великого поэта.
Страна: Россия
Студия: Star Media
Продолжительность: 01:29:50
Перевод: Не требуется
Файл
Кодек: XviD
Качество: HDTVRip [Исходник: HDTV (1080i)]
Видео: XviD, 704x400 (16:9), 2133 Кбит/с, 25 кадр/с
Звук: Русский, Dolby AC3, 48000 Гц, 192 Кбит/с, 2 канала (Стерео)
Субтитры: Нет

MediaInfo

General
Complete name : Lermontov.2014.HDTVRip.avi
Format : AVI
Format/Info : Audio Video Interleave
File size : 1.46 GiB
Duration : 1h 29mn
Overall bit rate : 2 333 Kbps
Writing application : VirtualDubMod 1.5.10.3 (build 2550/release)
Writing library : VirtualDubMod build 2550/release
Copyright : rip by ivandubskoj
Video
ID : 0
Format : MPEG-4 Visual
Format profile : Advanced Simple@L5
Format settings, BVOP : 1
Format settings, QPel : No
Format settings, GMC : No warppoints
Format settings, Matrix : Default (MPEG)
Codec ID : XVID
Codec ID/Hint : XviD
Duration : 1h 29mn
Bit rate : 2 133 Kbps
Width : 704 pixels
Height : 400 pixels
Display aspect ratio : 16:9
Frame rate : 25.000 fps
Color space : YUV
Chroma subsampling : 4:2:0
Bit depth : 8 bits
Scan type : Progressive
Compression mode : Lossy
Bits/(Pixel*Frame) : 0.303
Stream size : 1.34 GiB (91%)
Writing library : XviD 73
Audio
ID : 1
Format : AC-3
Format/Info : Audio Coding 3
Mode extension : CM (complete main)
Codec ID : 2000
Duration : 1h 29mn
Bit rate mode : Constant
Bit rate : 192 Kbps
Channel(s) : 2 channels
Channel positions : Front: L R
Sampling rate : 48.0 KHz
Bit depth : 16 bits
Compression mode : Lossy
Stream size : 123 MiB (8%)
Alignment : Split accross interleaves
Interleave, duration : 64 ms (1.60 video frames)
Interleave, preload duration : 500 ms

Скриншоты

[Профиль] [ЛС]
Кто просматривает тему:

Форум Тема Автор Размер
Фильмы (HD Rips | 720p, 1080p) Дуэль. Пушкинъ – Лермонтовъ (Денис Банников) [2014, Россия, фэнтези, драма, HDTV 1080i] TorrentFilm 6.09 GB
Фильмы (HD Rips | 720p, 1080p) Дуэль. Пушкинъ – Лермонтовъ (Денис Банников) [2014, Россия, фэнтези, драма, HDTV 1080i] + Original Rus TorrentFilm 9.86 GB
Фильмы 2014 года Дуэль. Пушкинъ – Лермонтовъ (Денис Банников) [2014, фэнтези, драма] HDTVRip достали все 2.05 GB
Фильмы (DVD 5/9) Лермонтов (Альберт Гендельштейн) [1943 г., Исторический, DVD5] TorrentFilm 4.26 GB
Документальные HD Лермонтов (Максим Беспалый) [2014 г., Историко-биографический, HDTV 1080i] TorrentFilm 5.55 GB
Отечественная Классика Михаил Юрьевич Лермонтов - Демон [Алла Демидова, 2013] Magnat 89 MB
Фильмы 2015 года Один и два / One and Two (Эндрю Дроз Палермо / Andrew Droz Palermo) [2015, США, фэнтези, триллер, драма, WEB-DLRip] TorrentFilm 734 MB
Футбол Футбол. Чемпионат Италии 2014-15. 18-й тур. Фиорентина — Палермо [11.01] (2015) HDRip sergej644 1.44 GB
Показать сообщения:    

Текущее время: Сегодня 08:31

Часовой пояс: GMT



Вы не можете начинать темы
Вы не можете отвечать на сообщения
Вы не можете редактировать свои сообщения
Вы не можете удалять свои сообщения
Вы не можете голосовать в опросах
Вы не можете прикреплять файлы к сообщениям
Вы не можете скачивать файлы