Леон / Léon (1994) BDRip 720p от HQCLUB | International Cut | Remastered

 
Автор Сообщение

sergej644 ®

Пол:

Стаж: 4 года 11 месяцев

Сообщений: 6035

Откуда: Soviet Union



Награды: Нет

Торрент-статистика

Создавать темы 24-Дек-2015 19:15

[Цитировать]

- Леон / Léon (1994) BDRip 720p | International Cut | Remastered
от

Информация о фильме
Название: Леон: Профессионал
Оригинальное название: Léon: The Professional
Год выхода: 1994
Жанр: Триллер, Драма, Криминал, Боевик
В ролях: Жан Рено (Leon), Гари Олдман (Stansfield), Натали Портман (Mathilda), Дэнни Айелло (Tony), Питер Эппел (Malky), Уилли Уан Блад (1st Stansfield man), Дон Крич (2nd Stansfield man), Кейт А. Гласко (3rd Stansfield man), Рэндольф Скотт (4th Stansfield man), Майкл Бадалукко (Mathilda's Father), Эллен Грин (Mathilda's Mother), Элизабет Реген (Mathilda's Sister)
Режиссёр: Люк Бессон / Luc Besson
О фильме: Профессиональный убийца Леон, не знающий пощады и жалости, знакомится со своей очаровательной соседкой Матильдой, семью которой расстреливают полицейские, замешанные в торговле наркотиками. Благодаря этому знакомству он впервые испытывает чувство любви, но...«Вы не можете остановить того, кого не видно»
Релиз от -
Автор рипа: Rensler
Выпущено: France
Студия: Gaumont, Les Films du Dauphin
Продолжительность: 02:12:54.986
Перевод:
• Профессиональный (многоголосый, закадровый) «Амальгама»
• Профессиональный (многоголосый, закадровый) «Киномания»
• Авторский (одноголосый, закадровый) «А.Гаврилов»
• Авторский (одноголосый, закадровый) «Ю.Живов»
• Авторский (одноголосый, закадровый) «Д.Пучков "Гоблин"»
• Авторский (одноголосый, закадровый) «В.Рукин»
Оригинальная аудиодорожка: Английская
Субтитры: Русские (полные х 3) (R5 / Киномания / Д.Пучков "Гоблин" с ненормативом), Русские (Интересные факты о фильме) , Английские (полные, SDH, SDH цветные)
Главы: Сохранены чаптеры с оригинального Blu-ray Disc
Файл:
Формат: MKV
Качество: BDRip 720p (источник: BLUEBIRD / Blu-ray Disc / Remastered )
Видео: 1280x536 (2,40:1) at 23.976 fps, x264@L4.1 ~ 12,3 Мбит/сек, 0.746 bit/pixel
Аудио#1: 48 kHz/16-bit, AC3 Dolby Digital, 3/2 (L,C,R,l,r) + LFE ch, ~ 640 kbps avg | RUS, MVO "Амальгама"
Аудио#2: 48 kHz/16-bit, AC3 Dolby Digital, 3/2 (L,C,R,l,r) + LFE ch, ~ 640 kbps avg | RUS, MVO "Киномания"
Аудио#3: 48 kHz/16-bit, AC3 Dolby Digital, 3/2 (L,C,R,l,r) + LFE ch, ~ 640 kbps avg | RUS, VO "А.Гаврилов"
Аудио#4: 48 kHz/16-bit, AC3 Dolby Digital, 3/2 (L,C,R,l,r) + LFE ch, ~ 640 kbps avg | RUS, VO "Ю.Живов"
Аудио#5: 48 kHz/16-bit, AC3 Dolby Digital, 3/2 (L,C,R,l,r) + LFE ch, ~ 640 kbps avg | RUS, VO "Д.Пучков "Гоблин"
Аудио#6: 48 kHz/16-bit, AC3 Dolby Digital, 3/2 (L,C,R,l,r) + LFE ch, ~ 640 kbps avg | RUS, VO "В.Рукин"
Аудио#7: 48 kHz/16-bit, AC3 Dolby Digital, 3/2 (L,C,R,l,r) + LFE ch, ~ 640 kbps avg | ENG
Скачать: Семпл

MI@logx.264

Цитатаlogx.264 писал:
x264 [info]: frame I:1452 Avg QP:16.43 size:146080
x264 [info]: frame P:34789 Avg QP:17.52 size: 87579
x264 [info]: frame B:154967 Avg QP:18.33 size: 57868
x264 [info]: consecutive B-frames: 1.2% 1.3% 3.0% 15.2% 14.3% 32.4% 9.6% 14.7% 3.5% 1.0% 0.9% 2.5% 0.2%
x264 [info]: ref P L0: 38.3% 9.0% 17.3% 9.4% 7.3% 5.9% 4.9% 3.2% 2.6% 2.1% 0.1% 0.0%
ЦитатаMediaInfo писал:Уникальный идентификатор : 223823612523979776953965618317993974225 (0xA862DC195E391BCCAD19209723E819D1)
Полное имя : Leon.1994.International.Cut.BluRay.720p.Rus.Eng.-HQCLUB.mkv
Формат : Matroska
Версия формата : Version 4 / Version 2
Размер файла : 15,6 Гбайт
Продолжительность : 2 ч. 12 м.
Общий поток : 16,7 Мбит/сек
Название фильма : Леон / Leon (1994) BDRip 720p | International Cut | Remastered
Дата кодирования : UTC 2015-12-22 15:36:04
Программа кодирования : mkvmerge v8.3.0 ('Over the Horizon') 64bit
Библиотека кодирования : libebml v1.3.1 + libmatroska v1.4.2
Attachements : Cover.Leon.png
DURATION : 02:09:06.572000000
NUMBER_OF_FRAMES : 1307
NUMBER_OF_BYTES : 43579
_STATISTICS_WRITING_APP : mkvmerge v8.3.0 ('Over the Horizon') 64bit
_STATISTICS_WRITING_DATE_UTC : 2015-12-22 15:36:04
_STATISTICS_TAGS : BPS DURATION NUMBER_OF_FRAMES NUMBER_OF_BYTES
Видео
Идентификатор : 1
Формат : AVC
Формат/Информация : Advanced Video Codec
Профиль формата : High@L4.1
Параметр CABAC формата : Да
Параметр ReFrames формата : 10 кадров
Идентификатор кодека : V_MPEG4/ISO/AVC
Продолжительность : 2 ч. 12 м.
Битрейт : 12,3 Мбит/сек
Ширина : 1280 пикселей
Высота : 536 пикселей
Соотношение сторон : 2,40:1
Режим частоты кадров : Постоянный
Частота кадров : 23,976 кадра/сек
Цветовое пространство : YUV
Субдискретизация насыщенности : 4:2:0
Битовая глубина : 8 бит
Тип развёртки : Прогрессивная
Бит/(Пиксели*Кадры) : 0.746
Размер потока : 11,1 Гбайт (71%)
Заголовок : (c) HQCLUB.NET [Release by Rensler ]
Библиотека кодирования : x264 core 148 r2638 7599210
Настройки программы : cabac=1 / ref=10 / deblock=1:-3:-3 / analyse=0x3:0x113 / me=umh / subme=11 / psy=1 / psy_rd=0.85:0.20 / mixed_ref=1 / me_range=64 / chroma_me=1 / trellis=2 / 8x8dct=1 / cqm=0 / deadzone=21,11 / fast_pskip=0 / chroma_qp_offset=-3 / threads=3 / lookahead_threads=1 / sliced_threads=0 / nr=0 / decimate=0 / interlaced=0 / bluray_compat=0 / constrained_intra=0 / bframes=12 / b_pyramid=2 / b_adapt=2 / b_bias=0 / direct=3 / weightb=1 / open_gop=0 / weightp=2 / keyint=230 / keyint_min=23 / scenecut=40 / intra_refresh=0 / rc_lookahead=80 / rc=2pass / mbtree=0 / bitrate=12270 / ratetol=1.0 / qcomp=0.80 / qpmin=0 / qpmax=69 / qpstep=4 / cplxblur=20.0 / qblur=0.5 / vbv_maxrate=50000 / vbv_bufsize=62500 / nal_hrd=none / filler=0 / ip_ratio=1.20 / pb_ratio=1.10 / aq=2:0.60
Язык : English
Default : Да
Forced : Нет
DURATION : 02:12:54.967000000
NUMBER_OF_FRAMES : 191208
NUMBER_OF_BYTES : 12226507062
_STATISTICS_WRITING_APP : mkvmerge v8.3.0 ('Over the Horizon') 64bit
_STATISTICS_WRITING_DATE_UTC : 2015-12-22 15:36:04
_STATISTICS_TAGS : BPS DURATION NUMBER_OF_FRAMES NUMBER_OF_BYTES
Аудио #1
Идентификатор : 2
Формат : AC-3
Формат/Информация : Audio Coding 3
Расширение режима : CM (complete main)
Параметр Endianness формата : Big
Идентификатор кодека : A_AC3
Продолжительность : 2 ч. 12 м.
Вид битрейта : Постоянный
Битрейт : 640 Кбит/сек
Каналы : 6 каналов
Расположение каналов : Front: L C R, Side: L R, LFE
Частота : 48,0 КГц
Метод сжатия : С потерями
Размер потока : 608 Мбайт (4%)
Заголовок : MVO "Амальгама"
Язык : Russian
Default : Да
Forced : Нет
Аудио #2
Идентификатор : 3
Формат : AC-3
Формат/Информация : Audio Coding 3
Расширение режима : CM (complete main)
Параметр Endianness формата : Big
Идентификатор кодека : A_AC3
Продолжительность : 2 ч. 12 м.
Вид битрейта : Постоянный
Битрейт : 640 Кбит/сек
Каналы : 6 каналов
Расположение каналов : Front: L C R, Side: L R, LFE
Частота : 48,0 КГц
Метод сжатия : С потерями
Размер потока : 608 Мбайт (4%)
Заголовок : MVO "Киномания"
Язык : Russian
Default : Нет
Forced : Нет
Аудио #3
Идентификатор : 4
Формат : AC-3
Формат/Информация : Audio Coding 3
Расширение режима : CM (complete main)
Параметр Endianness формата : Big
Идентификатор кодека : A_AC3
Продолжительность : 2 ч. 12 м.
Вид битрейта : Постоянный
Битрейт : 640 Кбит/сек
Каналы : 6 каналов
Расположение каналов : Front: L C R, Side: L R, LFE
Частота : 48,0 КГц
Метод сжатия : С потерями
Размер потока : 608 Мбайт (4%)
Заголовок : VO "А.Гаврилов"
Язык : Russian
Default : Нет
Forced : Нет
Аудио #4
Идентификатор : 5
Формат : AC-3
Формат/Информация : Audio Coding 3
Расширение режима : CM (complete main)
Параметр Endianness формата : Big
Идентификатор кодека : A_AC3
Продолжительность : 2 ч. 12 м.
Вид битрейта : Постоянный
Битрейт : 640 Кбит/сек
Каналы : 6 каналов
Расположение каналов : Front: L C R, Side: L R, LFE
Частота : 48,0 КГц
Метод сжатия : С потерями
Размер потока : 608 Мбайт (4%)
Заголовок : VO "Ю.Живов"
Язык : Russian
Default : Нет
Forced : Нет
Аудио #5
Идентификатор : 6
Формат : AC-3
Формат/Информация : Audio Coding 3
Расширение режима : CM (complete main)
Параметр Endianness формата : Big
Идентификатор кодека : A_AC3
Продолжительность : 2 ч. 12 м.
Вид битрейта : Постоянный
Битрейт : 640 Кбит/сек
Каналы : 6 каналов
Расположение каналов : Front: L C R, Side: L R, LFE
Частота : 48,0 КГц
Метод сжатия : С потерями
Размер потока : 608 Мбайт (4%)
Заголовок : VO "Д.Пучков "Гоблин"
Язык : Russian
Default : Нет
Forced : Нет
Аудио #6
Идентификатор : 7
Формат : AC-3
Формат/Информация : Audio Coding 3
Расширение режима : CM (complete main)
Параметр Endianness формата : Big
Идентификатор кодека : A_AC3
Продолжительность : 2 ч. 12 м.
Вид битрейта : Постоянный
Битрейт : 640 Кбит/сек
Каналы : 6 каналов
Расположение каналов : Front: L C R, Side: L R, LFE
Частота : 48,0 КГц
Метод сжатия : С потерями
Размер потока : 608 Мбайт (4%)
Заголовок : VO "В.Рукин"
Язык : Russian
Default : Нет
Forced : Нет
Аудио #7
Идентификатор : 8
Формат : AC-3
Формат/Информация : Audio Coding 3
Расширение режима : CM (complete main)
Параметр Endianness формата : Big
Идентификатор кодека : A_AC3
Продолжительность : 2 ч. 12 м.
Вид битрейта : Постоянный
Битрейт : 640 Кбит/сек
Каналы : 6 каналов
Расположение каналов : Front: L C R, Side: L R, LFE
Частота : 48,0 КГц
Метод сжатия : С потерями
Размер потока : 608 Мбайт (4%)
Заголовок : Original
Язык : English
Default : Нет
Forced : Нет
Текст #1
Идентификатор : 9
Формат : UTF-8
Идентификатор кодека : S_TEXT/UTF8
Идентификатор кодека/Информация : UTF-8 Plain Text
Заголовок : Full "R5"
Язык : Russian
Default : Нет
Forced : Нет
Текст #2
Идентификатор : 10
Формат : UTF-8
Идентификатор кодека : S_TEXT/UTF8
Идентификатор кодека/Информация : UTF-8 Plain Text
Заголовок : Full "Киномания"
Язык : Russian
Default : Нет
Forced : Нет
Текст #3
Идентификатор : 11
Формат : UTF-8
Идентификатор кодека : S_TEXT/UTF8
Идентификатор кодека/Информация : UTF-8 Plain Text
Заголовок : Full Д.Пучков "Гоблин"
Язык : Russian
Default : Нет
Forced : Нет
Текст #4
Идентификатор : 12
Формат : UTF-8
Идентификатор кодека : S_TEXT/UTF8
Идентификатор кодека/Информация : UTF-8 Plain Text
Заголовок : Комментарии о фильме
Язык : Russian
Default : Нет
Forced : Нет
Текст #5
Идентификатор : 13
Формат : UTF-8
Идентификатор кодека : S_TEXT/UTF8
Идентификатор кодека/Информация : UTF-8 Plain Text
Заголовок : Full V1
Язык : English
Default : Нет
Forced : Нет
Текст #6
Идентификатор : 14
Формат : UTF-8
Идентификатор кодека : S_TEXT/UTF8
Идентификатор кодека/Информация : UTF-8 Plain Text
Заголовок : Full V2
Язык : English
Default : Нет
Forced : Нет
Текст #7
Идентификатор : 15
Формат : UTF-8
Идентификатор кодека : S_TEXT/UTF8
Идентификатор кодека/Информация : UTF-8 Plain Text
Заголовок : SDH
Язык : English
Default : Нет
Forced : Нет
Текст #8
Идентификатор : 16
Формат : UTF-8
Идентификатор кодека : S_TEXT/UTF8
Идентификатор кодека/Информация : UTF-8 Plain Text
Заголовок : SDH-COLORED
Язык : English
Default : Нет
Forced : Нет
Меню
00:00:00.000 : en:Chapter 01
00:10:02.599 : en:Chapter 02
00:17:01.519 : en:Chapter 03
00:24:20.289 : en:Chapter 04
00:30:16.189 : en:Chapter 05
00:33:56.114 : en:Chapter 06
00:42:42.184 : en:Chapter 07
00:48:08.719 : en:Chapter 08
00:55:29.951 : en:Chapter 09
01:03:53.286 : en:Chapter 10
01:08:39.988 : en:Chapter 11
01:28:29.804 : en:Chapter 12
01:36:56.350 : en:Chapter 13
01:47:41.997 : en:Chapter 14
01:53:14.287 : en:Chapter 15
02:01:06.550 : en:Chapter 16

Скриншоты


[Профиль] [ЛС]
Показать сообщения:    

Текущее время: Сегодня 20:10

Часовой пояс: GMT



Вы не можете начинать темы
Вы не можете отвечать на сообщения
Вы не можете редактировать свои сообщения
Вы не можете удалять свои сообщения
Вы не можете голосовать в опросах
Вы не можете прикреплять файлы к сообщениям
Вы не можете скачивать файлы