Леонид Якубович. Фигура Высшего Пилотажа (Александр Тяпов) [2015, Документальный, HDTV 720p]

 
Автор Сообщение

TorrentFilm ®

Пол:

Стаж: 2 года

Сообщений: 7741



Награды: Нет

Торрент-статистика

Создавать темы 03-Авг-2015 00:06

[Цитировать]

Леонид Якубович. Фигура Высшего Пилотажа- Год выпуска: 2015
Страна: Россия
Студия: Первый Канал HD | Медиаконструктор
Жанр: Документальный
Продолжительность: 0:49:14
Редактор: Наталья Пешкова
Продюсеры: Людмила Снигирeва, Олег Вольнов
Автор и режиссeр: Александр Тяпов-Описание: Какой же Леонид Якубович на самом деле? Отец и дедушка, фанатик пилотирования самолётов и вдумчивый поэт… А ещё токарь, ценитель женской красоты, проводник в поезде, теннисист, штангист, драматург и актёр. Непросто поверить в то, что Якубовичу, знаменитому Леониду Аркадьевичу из "Поля Чудес", в этом году 70. Его давно зовут "Полечудесный". Он – любимец простого народа. Но так ли много о нём известно?-Автор рипа: lrn
Автор записи: riper.am
Сэмпл: sendfile-Тип релиза: HDTV 720p
Контейнер: MKV
Видео: 1280x720 (16:9), 25,000 fps, H264, ~4000 kbps avg, ~0.174 bit/pixel
Аудио: 48 kHz, AC3 Dolby Digital, 2/0 (L,R) ch, ~192.00 kbps avg-

MediaInfo

GeneralUnique ID : 247586996690966921413794984647906796913 (0xBA4385654A16743BA6F2B4921453A571)Complete name : E:\uTorrent.Temp\Temp\Leonid.Yakubovich.Figura.Visshego.Pilotazha.2015.HDTV.720p.x264-lrn.mkvFormat : MatroskaFormat version : Version 4 / Version 2File size : 1.44 GiBDuration : 49mn 14sOverall bit rate : 4 195 KbpsMovie name : Leonid.Yakubovich.Figura.Visshego.Pilotazha.2015.HDTV.720p.x264-lrnEncoded date : UTC 2010-02-22 21:41:31Writing application : mkvmerge v5.9.0 ('On The Loose') built on Dec 9 2012 15:37:01Writing library : libebml v1.3.0 + libmatroska v1.4.0DURATION : 00:49:14.600000000NUMBER_OF_FRAMES : 73865NUMBER_OF_BYTES : 1477668377_STATISTICS_WRITING_APP : mkvmerge v7.7.0 ('Six Voices') 32bit built on Feb 28 2015 23:23:00_STATISTICS_WRITING_DATE_UT : 2015-08-01 16:40:01_STATISTICS_TAGS : BPS DURATION NUMBER_OF_FRAMES NUMBER_OF_BYTES
VideoID : 1Format : AVCFormat/Info : Advanced Video CodecFormat profile : High@L4.1Format settings, CABAC : YesFormat settings, ReFrames : 8 framesCodec ID : V_MPEG4/ISO/AVCDuration : 49mn 14sBit rate : 4 000 KbpsWidth : 1 280 pixelsHeight : 720 pixelsDisplay aspect ratio : 16:9Frame rate mode : ConstantFrame rate : 25.000 fpsColor space : YUVChroma subsampling : 4:2:0Bit depth : 8 bitsScan type : ProgressiveBits/(Pixel*Frame) : 0.174Stream size : 1.35 GiB (93%)Writing library : x264 core 146 r2538 121396cEncoding settings : cabac=1 / ref=8 / deblock=1:-3:-3 / analyse=0x3:0x133 / me=umh / subme=9 / psy=1 / psy_rd=1.00:0.00 / mixed_ref=1 / me_range=32 / chroma_me=1 / trellis=2 / 8x8dct=1 / cqm=0 / deadzone=21,11 / fast_pskip=1 / chroma_qp_offset=-2 / threads=12 / lookahead_threads=2 / sliced_threads=0 / nr=0 / decimate=1 / interlaced=0 / bluray_compat=0 / constrained_intra=0 / bframes=8 / b_pyramid=2 / b_adapt=2 / b_bias=0 / direct=3 / weightb=1 / open_gop=0 / weightp=2 / keyint=250 / keyint_min=25 / scenecut=40 / intra_refresh=0 / rc_lookahead=50 / rc=2pass / mbtree=1 / bitrate=4000 / ratetol=1.0 / qcomp=0.60 / qpmin=0 / qpmax=69 / qpstep=4 / cplxblur=20.0 / qblur=0.5 / vbv_maxrate=62500 / vbv_bufsize=78125 / nal_hrd=none / filler=0 / ip_ratio=1.40 / aq=1:1.00Default : YesForced : No
AudioID : 2Format : AC-3Format/Info : Audio Coding 3Mode extension : CM (complete main)Format settings, Endianness : BigCodec ID : A_AC3Duration : 49mn 14sBit rate mode : ConstantBit rate : 192 KbpsChannel(s) : 2 channelsChannel positions : Front: L RSampling rate : 48.0 KHzCompression mode : LossyStream size : 67.6 MiB (5%)Language : RussianDefault : YesForced : No

x264 log

raw [info]: 1280x720p 1:1 @ 25/1 fps (cfr)x264 [info]: using SAR=1/1x264 [info]: using cpu capabilities: MMX2 SSE2Fast SSSE3 SSE4.2 AVXx264 [info]: profile High, level 4.1x264 [info]: frame I:770 Avg QP:15.61 size:108034x264 [info]: frame P:22204 Avg QP:18.86 size: 37362x264 [info]: frame B:50891 Avg QP:20.93 size: 11100x264 [info]: consecutive B-frames: 6.5% 8.1% 12.5% 47.6% 9.9% 12.5% 1.7% 1.0% 0.2%x264 [info]: mb I I16..4: 5.8% 78.8% 15.3%x264 [info]: mb P I16..4: 2.9% 12.2% 1.5% P16..4: 45.7% 19.7% 12.5% 0.5% 0.1% skip: 4.9%x264 [info]: mb B I16..4: 0.2% 0.9% 0.1% B16..8: 41.7% 9.2% 2.0% direct: 7.5% skip:38.3% L0:39.0% L1:45.9% BI:15.0%x264 [info]: 8x8 transform intra:74.1% inter:64.9%x264 [info]: direct mvs spatial:98.7% temporal:1.3%x264 [info]: coded y,uvDC,uvAC intra: 74.4% 78.3% 42.4% inter: 25.4% 29.3% 1.9%x264 [info]: i16 v,h,dc,p: 33% 15% 7% 46%x264 [info]: i8 v,h,dc,ddl,ddr,vr,hd,vl,hu: 14% 12% 6% 8% 11% 13% 12% 12% 13%x264 [info]: i4 v,h,dc,ddl,ddr,vr,hd,vl,hu: 14% 11% 4% 8% 14% 14% 13% 10% 12%x264 [info]: i8c dc,h,v,p: 34% 26% 22% 18%x264 [info]: Weighted P-Frames: Y:3.7% UV:1.4%x264 [info]: ref P L0: 56.1% 14.4% 14.8% 4.6% 3.5% 2.5% 2.2% 1.5% 0.3% 0.0%x264 [info]: ref B L0: 86.0% 8.3% 2.7% 1.2% 0.8% 0.5% 0.3%x264 [info]: ref B L1: 96.4% 3.6%x264 [info]: kb/s:4001.00encoded 73865 frames, 10.88 fps, 4001.00 kb/s

Скриншоты

-
[Профиль] [ЛС]
Показать сообщения:    

Текущее время: Сегодня 06:03

Часовой пояс: GMT



Вы не можете начинать темы
Вы не можете отвечать на сообщения
Вы не можете редактировать свои сообщения
Вы не можете удалять свои сообщения
Вы не можете голосовать в опросах
Вы не можете прикреплять файлы к сообщениям
Вы не можете скачивать файлы