Леонардо (+ 3D Экспо) / Leonardo [s01,s02] +3D Expo [s01] (2009-2015) WEB-DL 720p | D

 
Автор Сообщение

достали все ®

Пол:

Стаж: 1 год 8 месяцев

Сообщений: 6515



Награды: 12 (Подробнее)

Mega Seeder 1 (Количество: 1) Mega Releaser 3 (Количество: 1) Mega Seeder 3 (Количество: 1)
Торрент-статистика

Создавать темы 16-Апр-2016 22:11

[Цитировать]

Информация о фильме
Название: Леонардо + Леонардо 3D Экспо
Оригинальное название: Leonardo + Leonardo 3D Expo
Год выхода: 2009-2015
Страна: Италия, Rai Fiction, Gruppo Alcuni, DQ Entertainment
Жанр: Мультсериал, приключения, детский, семейный
Продолжительность: 52 х ~ 00:13:02, 13 х ~ 00:05:05
Перевод: Профессиональный дублированный (канал СТС)
Режиссеры: Серджо Манфио, Франческо Манфио
Роли озвучивали: Джейн Алан, Барбара Гудсон, Юкиджи, Юми Тоума, Марлен Шарп, Р. Мартин Клейн, Грег Берг, Ричард Кансино, Тифани Кристун, Брайан Донован
О фильме:
Увлекательный детский мультик «Леонардо» поведает о великом изобретателе юного возраста по имени Леонардо. Действие происходит в конце пятнадцатого века, в то время, когда еще не было всех привилегий жизни, доступных в наше время. Так что, юному дарованию и фантазеру не раз пришлось применить свой изобретательский талант, прославив свое имя на века. У Леонардо также есть его закадычные друзья - Лоренцо, Джоконда, брат с сестрой, необычные (говорящий кот Падо и деревянный робот Тилио), которые вдохновляют юного гения на великие свершения. Ребят ждет множество приключений и порой не без трудностей, так как дети местного богача постоянно вставляют им палки в колеса, прибегая к магии. Однако, ребята смогут общими усилиями противостоять проказникам.

Содержание

Леонардо - 1 сезон:
01. Поиски сокровища
02. Черепаха
03. Пещера дракона
04. Ход конём
05. Чудо-ласты
06. Средневековая олимпиада
07. Летняя жара
08. Живопись
09. Чудище из озера
10. В жерле вулкана
11. Аквапарк
12. На охоте
13. Конкурс cнежных фигур
14. Праздник весны
15. Большой прыжок
16. Сокровище в башне
17. День рождения Джоконды
18. Игра с дамами из замка
19. Волшебный плащ
20. Волшебный лес
21. Да здравствует театр
22. Эстафета в лесу
23. Мышиные крылья
24. Завещание рыцаря
25. Цветок тыквы
26. На краю водопада
Леонардо - 2 сезон:
01. Заброшенный монастырь
02. Первый ключ
03. Мужчина в сапогах
04. Краски и мази
05. Розовый краб
06. Усталый звонарь
07. Полет Тиглио
08. Пряжка
09. Пробковый шар
10. Стеклянный глаз
11. Продырявленная раковина
12. Дракон
13. Красная книга
14. Черный оникс
15. Говорящий камень
16. Железный серп
17. Ослиная подкова
18. Каменная голубка
19. Катапульта
20. Сломанные очки
21. Бабочки
22. Второй свисток
23. Волшебный дым
24. Три пера
25. Оливковое дерево
26. Тайна раскрыта
Леонардо 3D Экспо:
01. Два хвоста
02. Машина для кексов
03. Соревнования по тортам
04. Конкурс поваров
05. Замок на складе
06. Аквапарк
07. Перевернутый зонтик
08. Не шутите с водой
09. Плита на солнечных батареях
10. Гонки повозок
11. Ярмарка цветов
12. Плохое приключение
13. Велосипед под парусом
-Доп. информация:
Официальный сайт / Семпл-Файл
Формат: MP4
Качество: WEB-DL 720p
Видео: MPEG4-AVC, High@L4, 1280x720 (16:9), ~ 1 722 Kbps, 25.000 fps
Звук: 44.1 KHz, AAC-LC 2.0, 192 Kbps
Субтитры: нет

MI

s2e22. Второй свисток. W-720p-merci-.mp4
Format : MPEG-4
Format profile : Base Media / Version 2
Codec ID : mp42 (isom/mp42)
File size : 179 MiB
Duration : 13mn 3s
Overall bit rate mode : Variable
Overall bit rate : 1 916 Kbps
Encoded date : UTC 2015-10-17 15:34:03
Tagged date : UTC 2015-10-17 15:34:03
gsst : 0
gstd : 783393
Video
ID : 1
Format : AVC
Format/Info : Advanced Video Codec
Format profile : High@L3.1
Format settings, CABAC : Yes
Format settings, ReFrames : 1 frame
Codec ID : avc1
Codec ID/Info : Advanced Video Coding
Duration : 13mn 3s
Bit rate : 1 722 Kbps
Maximum bit rate : 5 130 Kbps
Width : 1 280 pixels
Height : 720 pixels
Display aspect ratio : 16:9
Frame rate mode : Constant
Frame rate : 25.000 fps
Color space : YUV
Chroma subsampling : 4:2:0
Bit depth : 8 bits
Scan type : Progressive
Bits/(Pixel*Frame) : 0.075
Stream size : 161 MiB (90%)
Tagged date : UTC 2015-10-17 15:34:09
Audio
ID : 2
Format : AAC
Format/Info : Advanced Audio Codec
Format profile : LC
Codec ID : 40
Duration : 13mn 3s
Bit rate mode : Variable
Bit rate : 192 Kbps
Maximum bit rate : 202 Kbps
Channel(s) : 2 channels
Channel positions : Front: L R
Sampling rate : 44.1 KHz
Frame rate : 43.066 fps (1024 spf)
Compression mode : Lossy
Stream size : 17.9 MiB (10%)
Title : IsoMedia File Produced by Google, 5-11-2011
Language : English
Encoded date : UTC 2015-10-17 15:34:07
Tagged date : UTC 2015-10-17 15:34:09

Скриншоты

Релиз от: -merci-
[Профиль] [ЛС]
Кто просматривает тему:

Форум Тема Автор Размер
Разная литература Антон Могучий - Развивай свой мозг! Уроки гениев. Леонардо да Винчи, Платон, Станиславский, Пикассо (2016) PDF достали все 1 MB
Фильмы 2006-2008 года Детективное агентство "Лассе и Майя": Возвращение Хамелеона / LasseMajas detektivbyra - Kameleontens hamnd (Хенрик Георгссон / Henrik Georgsson) [2008, Швеция, детский... TorrentFilm 1.27 GB
R.G.TorrentFilm Video Комната / Room (Леонард Абрахамсон / Lenny Abrahamson) [2015, Ирландия, Канада, Драма, DVDScreener] MVO (Паровоз Продакшн) Один 777 745 MB
Фильмы (HD Rips | 720p, 1080p) Комната / Room (Леонард Абрахамсон) [2015 г., Драма, BDRip 1080p] MVO [Paravoz production] + AVO [А. Матвеев] BOSS 9.43 GB
Фильмы (HD Rips | 720p, 1080p) Комната / Room (Леонард Абрахамсон) [2015 г., Драма, BDRip 720p] MVO [Paravoz production] + AVO [А. Матвеев] BOSS 6.15 GB
Фильмы (HD Rips | 720p, 1080p) Комната / Room (Леонард Абрахамсон) [2015 г., Драма, WEB-DL 1080p] MVO [Parovoz Production] BOSS 3.85 GB
Фильмы (HD Rips | 720p, 1080p) Комната / Room (Леонард Абрахамсон) [2015 г., Драма, WEB-DL 720p] AVO [А. Матвеев] BOSS 3.99 GB
Фильмы 2015 года Комната / Room (Леонард Абрахамсон) [2015 г., Драма, WEB-DLRip] MVO [Parovoz Production] BOSS 1.37 GB
Показать сообщения:    

Текущее время: Сегодня 02:45

Часовой пояс: GMT



Вы не можете начинать темы
Вы не можете отвечать на сообщения
Вы не можете редактировать свои сообщения
Вы не можете удалять свои сообщения
Вы не можете голосовать в опросах
Вы не можете прикреплять файлы к сообщениям
Вы не можете скачивать файлы