Ленни / Lenny (Боб Фосси / Bob Fosse) [1974, США, драма, биография, HDTVRip 720p] MVO + Sub Eng + Original Eng

 
Автор Сообщение

sergej644 ®

Пол:

Стаж: 4 года 11 месяцев

Сообщений: 6040

Откуда: Soviet Union



Награды: Нет

Торрент-статистика

Создавать темы 21-Фев-2015 20:09

[Цитировать]

Ленни / Lenny
Страна: США
Жанр: драма, биография
Год выпуска: 1974
Продолжительность: 01:46:48
Перевод: Профессиональный (многоголосый закадровый)
Cубтитры: английские
Оригинальная аудиодорожка: английский-Режиссер: Боб Фосси / Bob Fosse
В ролях: Дастин Хоффман, Валери Перрайн, Джэн Майнер, Стенли Бек, Фрэнки Мэн, Рашель Новикофф, Гэри Мортон, Гай Ренни, Мишель Йонг, Кэтрин Уитт-Описание: Комедийный актер Ленни Брюс, доводивший публику до конвульсий своими дерзкими сатирическими выступлениями, был назван журналом `The Hollywood Reporter` `зеркалом поколения`. По словам его жены Хани, он был всего лишь `жалким шутом`. Начиная с самой первой роли, комедиант постоянно отрабатывал свой стиль — игра Ленни Брюса была неподражаема.
Вооружившись шокирующей злободневностью и любовью к стриптизерше, Ленни при помощи своего резкого, зачастую оскорбительного юмора перевернул жанр комедии, а заодно и всю Америку. Гастролируя, он нажил великое множество страстных поклонников и заклятых врагов. Но ночная жизнь, изнуряющие прокуренные бары и постоянная замкнутость взяли свое.
Наркотическая зависимость, бесконечные аресты за резкость в выступлениях и назначенная в судебном порядке цензура — все угнетало этого борца — одиночку, но не остановило его до самого трагического, окутанного легендой конца.

Тип релиза: HDTVRip 720p
Контейнер: MKV
Видео: H264 / PAL 16:9 / 1280x694 (1,85:1) / 6927 kbps / 25 fps / 0.312 bit/pixel / High@L4.1
Аудио 1: Russian / AC3 / 48 kHz / 2 Ch / 192 kbps / 16 bit / MVO
Аудио 2: English / AC3 / 48 kHz / 2 Ch / 384 kbps / 16 bit / Original
Формат субтитров: softsub (SRT)
Навигация по главам: есть

MediaInfo

Общее
Уникальный идентификатор : 204221316078841492835470056634785966525 (0x99A39844473195FC8D7E2F054467A9BD)
Полное имя : W:\HDTV\Lenny.1974.HDTVRip.720p.mkv
Формат : Matroska
Версия формата : Version 4 / Version 2
Размер файла : 5,60 Гбайт
Продолжительность : 1 ч. 46 м.
Общий поток : 7504 Кбит/сек
Дата кодирования : UTC 2013-03-12 20:04:25
Программа кодирования : mkvmerge v6.1.0 ('Old Devil') built on Mar 2 2013 14:32:37
Библиотека кодирования : libebml v1.3.0 + libmatroska v1.4.0
Видео
Идентификатор : 1
Формат : AVC
Формат/Информация : Advanced Video Codec
Профиль формата : High@L4.1
Параметр CABAC формата : Да
Параметр ReFrames формата : 9 кадров
Идентификатор кодека : V_MPEG4/ISO/AVC
Продолжительность : 1 ч. 46 м.
Битрейт : 6927 Кбит/сек
Ширина : 1280 пикселей
Высота : 694 пикселя
Соотношение сторон : 1,85:1
Режим частоты кадров : Постоянный
Частота кадров : 25,000 кадров/сек
Цветовое пространство : YUV
Субдискретизация насыщенности : 4:2:0
Битовая глубина : 8 бит
Тип развёртки : Прогрессивная
Бит/(Пиксели*Кадры) : 0.312
Размер потока : 5,06 Гбайт (90%)
Библиотека кодирования : x264 core 129 r2245 bc13772
Настройки программы : cabac=1 / ref=9 / deblock=1:-3:-3 / analyse=0x3:0x113 / me=tesa / subme=10 / psy=1 / psy_rd=0.88:0.00 / mixed_ref=1 / me_range=24 / chroma_me=1 / trellis=2 / 8x8dct=1 / cqm=0 / deadzone=21,11 / fast_pskip=1 / chroma_qp_offset=-3 / threads=12 / lookahead_threads=2 / sliced_threads=0 / nr=0 / decimate=1 / interlaced=0 / bluray_compat=0 / constrained_intra=0 / bframes=8 / b_pyramid=2 / b_adapt=2 / b_bias=0 / direct=3 / weightb=1 / open_gop=0 / weightp=2 / keyint=250 / keyint_min=25 / scenecut=40 / intra_refresh=0 / rc_lookahead=150 / rc=2pass / mbtree=1 / bitrate=6927 / ratetol=1.0 / qcomp=0.60 / qpmin=0 / qpmax=69 / qpstep=4 / cplxblur=20.0 / qblur=0.5 / ip_ratio=1.40 / aq=1:1.00
Язык : English
Default : Да
Forced : Нет
Аудио #1
Идентификатор : 2
Формат : AC-3
Формат/Информация : Audio Coding 3
Расширение режима : CM (complete main)
Параметр Endianness формата : Big
Идентификатор кодека : A_AC3
Продолжительность : 1 ч. 46 м.
Вид битрейта : Постоянный
Битрейт : 192 Кбит/сек
Каналы : 2 канала
Расположение каналов : Front: L R
Частота : 48,0 КГц
Битовая глубина : 16 бит
Метод сжатия : С потерями
Размер потока : 147 Мбайт (3%)
Заголовок : MVO
Язык : Russian
Default : Да
Forced : Нет
Аудио #2
Идентификатор : 3
Формат : AC-3
Формат/Информация : Audio Coding 3
Профиль формата : Dolby Digital
Расширение режима : CM (complete main)
Параметр Endianness формата : Big
Идентификатор кодека : A_AC3
Продолжительность : 1 ч. 46 м.
Вид битрейта : Постоянный
Битрейт : 384 Кбит/сек
Каналы : 2 канала
Расположение каналов : Front: L R
Частота : 48,0 КГц
Битовая глубина : 16 бит
Метод сжатия : С потерями
Размер потока : 293 Мбайт (5%)
Заголовок : Original
Язык : English
Default : Нет
Forced : Нет
Текст
Идентификатор : 4
Формат : UTF-8
Идентификатор кодека : S_TEXT/UTF8
Идентификатор кодека/Информация : UTF-8 Plain Text
Заголовок : Original
Язык : English
Default : Нет
Forced : Нет
Меню
00:00:00.000 : en:01. Clap Trap
00:03:07.320 : en:02. "Hot Honey Harlow"
00:06:24.920 : en:03. Making an Impression
00:17:04.200 : en:04. Entertaining In-Laws
00:23:28.360 : en:05. A Very Bad Act
00:30:39.560 : en:06. There Are No Accidents
00:37:42.480 : en:07. In with the Wrong Crowd
00:45:05.680 : en:08. And Baby Makes Three
00:50:12.880 : en:09. A Call for Help
00:55:15.320 : en:10. Pointing Out Prejudice
01:03:50.920 : en:11. Arresting Material
01:12:42.280 : en:12. "You're Full of Blah!"
01:16:40.080 : en:13. "Words as Weapons"
01:23:06.720 : en:14. "I'm Not Funny!"
01:37:03.640 : en:15. Held in Contempt
01:43:02.400 : en:16. Suicide or Overdose?

Скриншоты

[Профиль] [ЛС]
Кто просматривает тему:

Форум Тема Автор Размер
Фильмы (DVD 5/9) Гонщики (Игорь Масленников) [1972, СССР, драма, спорт, DVD9] Sub Rus TorrentFilm 4.71 GB
Фильмы (HD Rips | 720p, 1080p) Зимняя вишня (Игорь Масленников) [1985, СССР, драма, мелодрама, комедия, BDRip 1080p] TorrentFilm 9.27 GB
Фильмы (HD DVD, Blu-ray и BDRemux) Зимняя вишня (Игорь Масленников) [1985, СССР, драма, мелодрама, комедия, BDRip 720p] painkiller 4.59 GB
Фильмы (HD Rips | 720p, 1080p) Зимняя вишня (Игорь Масленников) [1985, СССР, драма, мелодрама, комедия, Blu-ray Disc 1080p] TorrentFilm 19.95 GB
Зарубежные сериалы Злоумышленники / Intruders [01-08 из 8] (2014) BDRip 720p | P Russian Mafia 11.3 GB
Фильмы 2014 года Кавказская пленница! (Максим Воронков) [2014, Комедия] WEB-DLRip | iTunes BOSS 1.37 GB
Фильмы (HD Rips | 720p, 1080p) Кавказская пленница! (Максим Воронков) [2014, Россия, Комедия, WEB-DL 1080p] + Original Rus TorrentFilm 3.32 GB
Видео для КПК и Смартфонов Кавказская пленница! (Максим Воронков)[2014, комедия, WEBDLRip | КПК sergej644 340 MB
Показать сообщения:    

Текущее время: Сегодня 10:52

Часовой пояс: GMT



Вы не можете начинать темы
Вы не можете отвечать на сообщения
Вы не можете редактировать свои сообщения
Вы не можете удалять свои сообщения
Вы не можете голосовать в опросах
Вы не можете прикреплять файлы к сообщениям
Вы не можете скачивать файлы