Ленинград 46 (Сезон 1,Серия 1-32 из 32) (Игорь Копылов) [2015, Военная Драма,HDTVRip-AVC 1080p ]

 
Автор Сообщение

Враг Нароода ®

Стаж: 1 год 8 месяцев

Сообщений: 111



Награды: 2 (Подробнее)

За внесенный вклад в развитие сайта (Количество: 1) Mega Seeder 1 (Количество: 1)
Торрент-статистика

Создавать темы 05-Апр-2015 16:34

[Цитировать]

--Ленинград 46 Сезон 1,Серия 1-32 из 32-- --Год выпуска: 2015
Выпущено: Россия , Кинокомпания Триикс Медиа
Жанр: Военная Драма
Продолжительность: 00:45:00
Сезон: 1
Серия: 1-32
Количество серий в сезоне: 32
Озвучка 4:Не требуется
Субтитры: НЕТ-- --Режиссер: Игорь Копылов--В ролях: Сергей Гармаш, Евгений Миллер, Анна Табанина, Алексей Горбунов, Александр Лыков, Андрей Мерзликин, Даниил Страхов, Дмитрий Ульянов, Елена Коренева, Александра Богданова (IV), Эдуард Флёров, Пётр Зайченко, Роман Курцын, Кирилл Полухин, Евгений Леонов-Гладышев-- 1946-й год. Послевоенный Ленинград. Город, только что переживший блокаду и еще не оправившийся от голода, разрушений, смертей. И здесь ленинградская милиция ведет свою неравную войну с преступностью, накрывшей Ленинград после войны. В этой борьбе погибает начальник отдела по борьбе с бандитизмом легендарный майор Кузьмин. Перед его сотрудниками стоит непростая задача — поймать неуловимую банду Вити Музыканта — жестокого, изощренного убийцы и бандита.
Здесь начинается противостояние агента под прикрытием Реброва, который внедряется в банду для поимки Вити Музыканта и учителя литературы Данилова, волей судьбы, после несправедливого приговора, оказавшегося по другую сторону закона и потерявшего все: работу, жену, дочь. Пытаясь добиться справедливости, отомстить тем, кто исковеркал его жизнь, учитель литературы все больше погружается в криминальный мир послевоенного Ленинграда, постепенно превращаясь в одного из самых умных и опасных преступников.
Ему противостоит Ребров, начальник отдела по борьбе с бандитизмом. Когда-то случайно столкнув их в вагоне поезда, жизнь будет сводить их не раз и не два: одна женщина на двоих, одна любовь, один город. История о человеческом мужестве, драма человеческих судеб, впервые открывающая многие страницы послевоенной истории Ленинграда — суровой и жестокой.
-- --Качество :HDTVRip-AVC 1080p
Формат: MPEG-4
Видео кодек: H264
Видео: 7315Кбит/сек,1920х1080(16.9),в 25.000кадр/сек,AVC(Baseline@L4.0)(1Ref Frames)
Аудио кодек: AAC
Аудио Russian Dolby Digital 5.1:279Кбит/сек,48.0КГц,6каналов,AAC,(Version4)--

MediaInfo сезона

General
Полное имя : F:\Н А Ш Е К И Н О\ЛЕНИНГРАД 46\LENINGRAD_46_2015_S01_RUS[NTV_RUSSIA]_DD5.1_H264_Nikolai.Baranov_HDTVRip-AVC_(1080p)\LENINGRAD_46_2015_S01E01_RUS[NTV_RUSSIA]_DD5.1_H264_Nikolai.Baranov_HDTVRip-AVC_(1080p).mp4
Формат : MPEG-4
Профиль формата : Base Media
Идентификатор кодека : isom
Размер файла : 2.44 GiB
Продолжительность : 45mn 58s
Режим общего битрейта : Variable
Общий поток : 7 598 Kbps
Название фильма : Black Sails 2x08 @ AlexFilm
Дата кодирования : UTC 2015-03-24 04:43:53
Дата пометки : UTC 2015-03-24 04:43:53
Программа кодирования : Lavf51.12.1
Video
Идентификатор : 1
Формат : AVC
Формат/Информация : Advanced Video Codec
Профиль формата : Baseline@L4.0
Параметр CABAC формата : No
Параметр ReFrames формата : 1 frame
Параметр GOP формата : M=1, N=12
Идентификатор кодека : avc1
Идентификатор кодека/Информация : Advanced Video Coding
Продолжительность : 45mn 58s
Вид битрейта : Variable
Битрейт : 7 315 Kbps
Максимальный битрейт : 10.5 Mbps
Ширина : 1 920 pixels
Высота : 1 080 pixels
Соотношение сторон : 16:9
Режим частоты кадров : Constant
Частота кадров : 25.000 fps
Частота кадров в оригинале : 24.000 fps
Цветовое пространство : YUV
Субдискретизация насыщенности : 4:2:0
Битовая глубина : 8 bits
Тип развёртки : Progressive
Бит/(Пиксели*Кадры) : 0.141
Размер потока : 2.35 GiB (96%)
Дата кодирования : UTC 2015-03-24 04:43:53
Дата пометки : UTC 2015-03-24 04:43:53
Audio
Идентификатор : 2
Формат : AAC
Формат/Информация : Advanced Audio Codec
Профиль формата : LC
Идентификатор кодека : 40
Продолжительность : 45mn 58s
Вид битрейта : Variable
Битрейт : 279 Kbps
Каналы : 2 channels
Channel(s)_Original : 6 channels
Расположение каналов : Front: L C R, Side: L R, LFE
Частота : 48.0 KHz
Метод сжатия : Lossy
Размер потока : 91.7 MiB (4%)
Дата кодирования : UTC 2015-03-24 04:43:53
Дата пометки : UTC 2015-03-24 04:43:53
--

Скриншоты

-- --

Как закачать отдельный файл

1. Открыть торрент
2. Снять галки с тех файлов торрента, которые мы не хотим закачивать. Оставляем только на нужных нам файлах (файле).
3. Нажать О.К.
В клиенте utorrent
Инструкция
1) Открыть торрент

2) Снять галки с тех файлов торрента, которые мы не хотим закачивать:
* либо вручную, снимая с каждого файла галку( скрин №1)
* либо, нажав кнопку "Снять метки (Select None)", сняв сразу со всех файлов(скрин №2)
№1

№2

Оставляем только на нужных нам файлах (файле).

3)Нажать О.К
-- -- --Внимание!!! 18.04. 2015. РАЗДАЧА ОБНОВЛЕНА.ФИНАЛ СЕРИАЛА. ОБНОВИТЕ ТОРЕНТ ФАЙЛ.ПРИЯТНОГО ПРОСМОТРА . --Релиз от: Nikolai.Baranov -- -- -- --
[Профиль] [ЛС]
Кто просматривает тему:

Форум Тема Автор Размер
Программы [Разное] Учебник с ответами. Русский язык. 4 класс. Зеленина. v1.3 [Android 2.2+, RUS] TorrentFilm 97 MB
Фильмы (DVD 5/9) Ленин в Октябре (Михаил Ромм) [1937, СССР, Историко-революционный, DVD5] ~ ПОЛНАЯ ВЕРСИЯ TorrentFilm 3.83 GB
Отечественные cериалы Ленинград (01-04 из 04) ( Александр Буравский) [2007, драма, военный , SATRip-AVC Aleksan66 2.41 GB
Rock Ленинград - Коллекция лучших песен (2016) MP3 достали все 439 MB
Фильмы (HD Rips | 720p, 1080p) Ленинград / Attack on Leningrad (Александр Буравский) [2009, Россия, Драма, военный, BDRemux 1080p] Sub Rus Eng+ Original Eng TorrentFilm 19.78 GB
Фильмы (HD Rips | 720p, 1080p) Ленинград / Attack on Leningrad (Александр Буравский) [2009, Россия, Драма, военный, BDRip 720p] Sub Rus + Original Eng TorrentFilm 4.97 GB
Отечественные cериалы Ленинград 46 (1-32 серия из 32) (Игорь Копылов) [2015 г., криминал, детектив, драма, SATRip] достали все 17.25 GB
Отечественные cериалы Ленинград 46 [01-32 из 32 + Послесловие] [2014,Детектив, боевик, криминал, HDTV] 1080i sergej644 96.36 GB
Показать сообщения:    

Текущее время: Сегодня 08:32

Часовой пояс: GMT



Вы не можете начинать темы
Вы не можете отвечать на сообщения
Вы не можете редактировать свои сообщения
Вы не можете удалять свои сообщения
Вы не можете голосовать в опросах
Вы не можете прикреплять файлы к сообщениям
Вы не можете скачивать файлы