Ленинград / Attack on Leningrad (Александр Буравский) [2009, Россия, Драма, военный, BDRemux 1080p] Sub Rus Eng+ Original Eng

 
Автор Сообщение

TorrentFilm ®

Пол:

Стаж: 2 года

Сообщений: 7741



Награды: Нет

Торрент-статистика

Создавать темы 01-Янв-2016 00:06

[Цитировать]

ЛенинградAttack on Leningrad Страна: Россия
Жанр: Драма, военный
Год выпуска: 2009
Продолжительность: 01:50:42
Перевод: Не требуется
Cубтитры: русские на иностранную речь, английские (отключаемые)
Оригинальная аудиодорожка: английский
Режиссер: Александр Буравский
В ролях: Мира Сорвино, Армин Мюллер-Шталь, Ольга Сутулова, Алена Стебунова, Михаил Ефремов, Александр Абдулов, Владимир Ильин, Луиза Мосендз, Александр Филиппенко, Сергей Колтаков ,Гэбриел Бирн и др.
Описание: Зима 1941-го. С неба безостановочно сыплются бомбы, превращая дома в руины, а выживших, оставшихся без крова мерзнущих людей душит голод. Гитлер убежден, что блокада превратит ленинградцев в стадо диких зверей, рвущих друг у друга куски пищи. Но ленинградцы остаются людьми. В фильме две героини: Нина Цветкова и Кейт Дэвис. Одна — ленинградка, милиционерша, «рабочая косточка», истовая комсомолка, дочь героя Гражданской, зарубленного в бою с белогвардейцами. А другая — дворянка, родившаяся в Петербурге, дочь белого генерала, эмигрантка, космополитка, журналистка, абсолютно не приспособленная к жизни — не говоря уже о немыслимых тяготах блокады. Они должны быть врагами, но жизнь рассудит иначе. Жизнь, за которую они отчаянно борются.

Тип релиза: BDRemux 1080p
Контейнер: MKV
Видео: MPEG-4 AVC Video, 1920*1080, 22,6 Мбит/сек , 23,976 кадр/сек, High@L4.1
Аудио: Russian, DTS-HD Master Audio, 6h ( L C R, Side: L R, LFE ) 48 kHz , 2044 Кбит/сек, 16 бит (DTS Core: 6h ( L C R, Side: L R, LFE ), 48 kHz , 1510 Кбит/сек , 16-bit)
Аудио 2: English: AC3, 2 h, (L,R,), 48 кГц, 348 kbps avg
Формат субтитров: softsub (SRT)

MediaInfo

Общее
Уникальный идентификатор         : 174227864173306006723907995533501556261 (0x831310EA57F8F7A2B98C53AEB12C6625)
Полное имя                       : E:\торрент\Attack on Leningrad (2009) .mkv
Формат                           : Matroska
Размер файла                     : 19,8 Гбайт
Продолжительность                : 1 ч. 50 м.
Общий поток                      : 25,6 Мбит/сек
Дата кодирования                 : UTC 2012-05-16 10:42:19
Программа кодирования            : mkvmerge v5.4.0 ('Piper') built on Mar 10 2012 13:34:39
Библиотека кодирования           : libebml v1.2.3 + libmatroska v1.3.0
Видео
Идентификатор                    : 1
Формат                           : AVC
Формат/Информация                : Advanced Video Codec
Профиль формата                  : High@L4.1
Параметр CABAC формата           : Да
Параметр ReFrames формата        : 4 кадра
Идентификатор кодека             : V_MPEG4/ISO/AVC
Продолжительность                : 1 ч. 50 м.
Вид битрейта                     : Переменный
Битрейт                          : 22,6 Мбит/сек
Максимальный битрейт             : 30,0 Мбит/сек
Ширина                           : 1920 пикс.
Высота                           : 1080 пикс.
Соотношение сторон               : 16:9
Частота кадров                   : 23,976 кадр/сек
Стандарт вещания                 : NTSC
Цветовое пространство            : YUV
Подвыборка цветности             : 4:2:0
Битовая глубина                  : 8 бит
Тип развёртки                    : Прогрессивная
Бит/(Пиксели*Кадры)              : 0.455
Размер потока                    : 17,5 Гбайт (89%)
Основные цвета                   : BT.709-5, BT.1361, IEC 61966-2-4, SMPTE RP177
Характеристики трансфера         : BT.709-5, BT.1361
Коэффициенты матрицы             : BT.709-5, BT.1361, IEC 61966-2-4 709, SMPTE RP177
Аудио #1
Идентификатор                    : 2
Формат                           : DTS
Формат/Информация                : Digital Theater Systems
Профиль формата                  : MA / Core
Идентификатор кодека             : A_DTS
Продолжительность                : 1 ч. 50 м.
Вид битрейта                     : Переменный
Битрейт                          : 2044 Кбит/сек / 1510 Кбит/сек
Каналы                           : 6 каналов
Расположение каналов             : Front: L C R, Side: L R, LFE
Частота                          : 48,0 КГц
Битовая глубина                  : 16 бит
Метод сжатия                     : Без потерь / Lossy
Язык                             : Russian
Аудио #2
Идентификатор                    : 3
Формат                           : AC-3
Формат/Информация                : Audio Coding 3
Расширение режима                : CM (complete main)
Идентификатор кодека             : A_AC3
Продолжительность                : 1 ч. 50 м.
Вид битрейта                     : Постоянный
Битрейт                          : 384 Кбит/сек
Каналы                           : 2 канала
Расположение каналов             : Front: L R
Частота                          : 48,0 КГц
Битовая глубина                  : 16 бит
Метод сжатия                     : С потерями
Размер потока                    : 304 Мбайт (2%)
Язык                             : English
Текст #1
Идентификатор                    : 4
Формат                           : UTF-8
Идентификатор кодека             : S_TEXT/UTF8
Идентификатор кодека/Информация  : UTF-8 Plain Text
Язык                             : Russian
Текст #2
Идентификатор                    : 5
Формат                           : UTF-8
Идентификатор кодека             : S_TEXT/UTF8
Идентификатор кодека/Информация  : UTF-8 Plain Text
Язык                             : English
Меню
00:00:00.000                     : en:Chapter 01
00:07:11.139                     : en:Chapter 02
00:10:56.030                     : en:Chapter 03
00:14:54.268                     : en:Chapter 04
00:17:59.328                     : en:Chapter 05
00:22:35.687                     : en:Chapter 06
00:27:10.420                     : en:Chapter 07
00:32:29.906                     : en:Chapter 08
00:38:32.768                     : en:Chapter 09
00:44:41.053                     : en:Chapter 10
00:49:32.552                     : en:Chapter 11
00:56:12.410                     : en:Chapter 12
01:01:33.439                     : en:Chapter 13
01:06:15.054                     : en:Chapter 14
01:12:31.096                     : en:Chapter 15
01:17:29.728                     : en:Chapter 16
01:23:02.727                     : en:Chapter 17
01:28:32.557                     : en:Chapter 18
01:37:36.684                     : en:Chapter 19
01:44:57.833                     : en:Chapter 20
01:50:42.093                     : en:Chapter 21

Скриншоты


Delia 80 vs ficus83




Скриншоты и семпл из раздачи ficus83:

http://multi-up.com/702903/
[Профиль] [ЛС]
Кто просматривает тему:

Форум Тема Автор Размер
Программы [Разное] Учебник с ответами. Русский язык. 4 класс. Зеленина. v1.3 [Android 2.2+, RUS] TorrentFilm 97 MB
Фильмы (DVD 5/9) Ленин в Октябре (Михаил Ромм) [1937, СССР, Историко-революционный, DVD5] ~ ПОЛНАЯ ВЕРСИЯ TorrentFilm 3.83 GB
Отечественные cериалы Ленинград (01-04 из 04) ( Александр Буравский) [2007, драма, военный , SATRip-AVC Aleksan66 2.41 GB
Rock Ленинград - Коллекция лучших песен (2016) MP3 достали все 439 MB
Фильмы (HD Rips | 720p, 1080p) Ленинград / Attack on Leningrad (Александр Буравский) [2009, Россия, Драма, военный, BDRip 720p] Sub Rus + Original Eng TorrentFilm 4.97 GB
Отечественные cериалы Ленинград 46 (1-32 серия из 32) (Игорь Копылов) [2015 г., криминал, детектив, драма, SATRip] достали все 17.25 GB
Отечественные cериалы Ленинград 46 (Сезон 1,Серия 1-32 из 32) (Игорь Копылов) [2015, Военная Драма,HDTVRip-AVC 1080p ] Враг Нароода 78.31 GB
Отечественные cериалы Ленинград 46 [01-32 из 32 + Послесловие] [2014,Детектив, боевик, криминал, HDTV] 1080i sergej644 96.36 GB
Показать сообщения:    

Текущее время: Сегодня 10:59

Часовой пояс: GMT



Вы не можете начинать темы
Вы не можете отвечать на сообщения
Вы не можете редактировать свои сообщения
Вы не можете удалять свои сообщения
Вы не можете голосовать в опросах
Вы не можете прикреплять файлы к сообщениям
Вы не можете скачивать файлы