Ленинград (01-04 из 04) ( Александр Буравский) [2007, драма, военный , SATRip-AVC

 
Автор Сообщение

Aleksan66 ®

Стаж: 1 год 2 месяца

Сообщений: 10



Награды: Нет

Торрент-статистика

Создавать темы 21-Сен-2016 14:20

[Цитировать]

Ленинград
--
Год выпуска: 2007
Производство: Россия, ООО "Ленинград-Продакшн, Инк." по заказу Первого канала
Жанр: драма, военный
Продолжительность: ~ 00:51:00
Субтитры: нет
--
Режиссёр: Александр Буравский
--
В ролях: Мира Сорвино, Армин Мюллер-Шталь, Ольга Сутулова, Габриэль Бирн, Михаил Ефремов, Александр Абдулов, Владимир Ильин, Алёна Стебунова, Сергей Колтаков, Дэвид Веррей, Виктор Смирнов, Вадим Логинов, Марат Башаров, Жанна Нестеренко, Александра Куликова, Луиза Мосендз, Александр Половцев, Валентина Талызина, Мария Голубкина, Евгений Стычкин, Сергей Горобченко, Марина Рокина, Павел Деревянко, Евгений Сидихин, Михаил Трухин, Александр Сирин, Хоффман Экард, Александр Байер, Александр Филиппенко, Николай Олялин, Хелен Линдсей, Сергей Никоненко, Валентин Гафт, Кирилл Лавров, Александр Баширов, Кристиан Беркель, Игорь Лифанов, Донатас Банионис, Екатерина Редникова, Александр Пашутин, Юрий Колокольников.

--
Описание: Ноябрь 1941 года. Осажденный немцами Ленинград. Памятники и величественные купола соборов затянуты камуфляжной сеткой, разрушенные здания, брошенные трамваи. Снабжение города продовольствием практически прервано. Единственная связь с Большой землей – дорога через Ладожское озеро, от которой зависят жизни почти трех с половиной миллионов человек…
Группа иностранных журналистов, в числе которых - молодая красивая женщина Кейт Дэвис, военный корреспондент лондонской "Дэйли Телеграф", - приезжает в город, чтобы рассказать мировой общественности о стойкости ленинградцев. В специально выделенном автобусе журналисты и сопровождающие их лица ездят по городу: Кировский завод, хлебный магазин, площади, дирижабли. Но все рвутся к линии фронта. И вот, наконец, их везут по Петергофскому шоссе в место, где повсюду видны следы недавнего боя с фашистами. Кейт старается заснять каждую деталь: немецкий мотоцикл с коляской, искореженный грузовик, танк. Неожиданно в небе появляются два "мессершмидта". Все журналисты уже в автобусе, а Кейт, забыв обо всем, лихорадочно щелкает фотоаппаратом, пытаясь поймать в объектив самолет. Раздается взрыв - и автобус взлетает на воздух. Затем еще взрыв. Придя в себя, Кейт понимает, что вокруг нет ни одной живой души. А в Смольный приходит сообщение: все журналисты погибли при бомбежке…
--

--

Качество: SATRip-AVC
Формат: MKV
Видео кодек: H.264
Аудио кодек: AC3
Видео: MPEG-4 AVC, 720х400,25fps,~1500 Кбит/сек,Bits/Pixel 0.208
Аудио: AC3, 48 kHz, ~192 Kbps, 2 канала

--

MI

Общее
Уникальный идентификатор : 182899717609465048587245521494455858168 (0x8999344CC4E514D9B96336A2BF0FB3F8)
Полное имя : J:\Ленинград\01 серия_Ленинград_rip by_Aleksan55.mkv
Формат : Matroska
Версия формата : Version 2
Размер файла : 625 Мбайт
Продолжительность : 51 м.
Общий поток : 1694 Кбит/сек
Дата кодирования : UTC 2016-09-10 23:56:46
Программа кодирования : mkvmerge v7.8.0 ('River Man') 32bit built on Apr 3 2015 12:11:22
Библиотека кодирования : libebml v1.3.1 + libmatroska v1.4.2
Видео
Идентификатор : 1
Формат : AVC
Формат/Информация : Advanced Video Codec
Профиль формата : High@L4.1
Параметр CABAC формата : Да
Параметр ReFrames формата : 12 кадров
Идентификатор кодека : V_MPEG4/ISO/AVC
Продолжительность : 51 м.
Битрейт : 1500 Кбит/сек
Ширина : 720 пикселей
Высота : 400 пикселей
Соотношение сторон : 16:9
Режим частоты кадров : Постоянный
Частота кадров : 25,000 кадров/сек
Цветовое пространство : YUV
Субдискретизация насыщенности : 4:2:0
Битовая глубина : 8 бит
Тип развёртки : Прогрессивная
Бит/(Пиксели*Кадры) : 0.208
Размер потока : 542 Мбайт (87%)
Библиотека кодирования : x264 core 148 r2638 7599210
Настройки программы : cabac=1 / ref=12 / deblock=1:-2:-2 / analyse=0x3:0x113 / me=umh / subme=9 / psy=1 / psy_rd=1.00:0.25 / mixed_ref=0 / me_range=32 / chroma_me=1 / trellis=2 / 8x8dct=1 / cqm=0 / deadzone=6,6 / fast_pskip=1 / chroma_qp_offset=-4 / threads=4 / lookahead_threads=4 / sliced_threads=0 / nr=0 / decimate=0 / interlaced=0 / bluray_compat=0 / constrained_intra=0 / bframes=12 / b_pyramid=2 / b_adapt=2 / b_bias=0 / direct=3 / weightb=1 / open_gop=0 / weightp=2 / keyint=250 / keyint_min=25 / scenecut=40 / intra_refresh=0 / rc_lookahead=40 / rc=2pass / mbtree=1 / bitrate=1500 / ratetol=1.0 / qcomp=0.80 / qpmin=0 / qpmax=69 / qpstep=4 / cplxblur=20.0 / qblur=0.5 / ip_ratio=1.10 / aq=1:1.20
Default : Да
Forced : Нет
Цветовой диапазон : Limited
Основные цвета : BT.601 PAL
Характеристики трансфера : BT.470 System B, BT.470 System G
Коэффициенты матрицы : BT.601
Аудио
Идентификатор : 2
Формат : AC-3
Формат/Информация : Audio Coding 3
Расширение режима : CM (complete main)
Параметр Endianness формата : Big
Идентификатор кодека : A_AC3
Продолжительность : 51 м.
Вид битрейта : Постоянный
Битрейт : 192 Кбит/сек
Каналы : 2 канала
Расположение каналов : Front: L R
Частота : 48,0 КГц
Метод сжатия : С потерями
Размер потока : 70,9 Мбайт (11%)
Default : Да
Forced : Нет

Скриншоты

--Рекламы нет.
[Профиль] [ЛС]
Показать сообщения:    

Текущее время: Сегодня 04:21

Часовой пояс: GMT



Вы не можете начинать темы
Вы не можете отвечать на сообщения
Вы не можете редактировать свои сообщения
Вы не можете удалять свои сообщения
Вы не можете голосовать в опросах
Вы не можете прикреплять файлы к сообщениям
Вы не можете скачивать файлы