Лемони Сникет: 33 несчастья / Lemony Snicket's A Series of Unfortunate Events (2004) BDRip 1080p

 
Автор Сообщение

DOMINION ®

Пол:

Стаж: 2 месяца 23 дня

Сообщений: 882



Награды: 2 (Подробнее)

За внесенный вклад в развитие сайта (Количество: 1) Друг (Количество: 1)
Торрент-статистика

Создавать темы 16-Ноя-2018 15:19

[Цитировать]

Информация о фильме
Название: Лемони Сникет: 33 несчастья
Оригинальное название: Lemony Snicket's A Series of Unfortunate Events
Год выхода: 2004
Жанр: фэнтези, комедия, приключения, семейный
Режиссер: Брэд Силберлинг
В ролях: Джим Керри, Лиам Эйкен, Эмили Браунинг, Кара Хоффман, Шелби Хоффман, Джуд Лоу, Тимоти Сполл, Кэтрин О’Хара, Билли Коннолли, Мэрил Стрип
О фильме: В один скверный пасмурный день на юных Бодлеров — Вайолет, Клауса и их маленькую сестричку Солнышко — обрушились несчастья. Страшный пожар лишил их дома и любящих родителей. В жизни сирот появился опекун Граф Олаф, который, как оказалось, совсем не граф, а злой гений, актёр и мастер переодеваний, стремящийся завладеть наследством несчастных детишек…

Выпущено: Paramount Pictures
Продолжительность: 01:47:59
Перевод: Дублированный (лицензия)
Файл
Кодек: x264
Качество: BDRip (источник: Blu-ray Disc)
Видео: 1920x1080 (16:9), 23.976 fps, 9260 kbps
Аудио #1: AC-3, 6 ch, 384 kbps (Rus)
Аудио #2: AC-3, 6 ch, 640 kbps (Eng)
Субтитры: Русские (форс,полные), Английские

Скриншоты

MI

Общее
Уникальный идентификатор : 239916508867029599242299101172292113129 (0xB47E3D25CC057088AA83D07E9047D2E9)
Полное имя : Lemony.Snicket's.A.Series.of.Unfortunate.Events.2004.BDRip.1080p.Rus.Eng.mkv
Формат : Matroska
Версия формата : Version 2
Размер файла : 7,76 Гбайт
Продолжительность : 1 ч. 47 м.
Общий поток : 10,3 Мбит/сек
Название фильма : Лемони Сникет: 33 несчастья / Lemony Snicket's A Series of Unfortunate Events (2004)
Дата кодирования : UTC 2012-06-09 10:40:34
Программа кодирования : mkvmerge v5.5.0 ('Healer') built on Apr 6 2012 21:43:24
Библиотека кодирования : libebml v1.2.3 + libmatroska v1.3.0
Видео
Идентификатор : 1
Формат : AVC
Формат/Информация : Advanced Video Codec
Профиль формата : High@L4.1
Параметр CABAC формата : Да
Параметр ReFrames формата : 4 кадра
Идентификатор кодека : V_MPEG4/ISO/AVC
Продолжительность : 1 ч. 47 м.
Битрейт : 9260 Кбит/сек
Ширина : 1920 пикселей
Высота : 1080 пикселей
Соотношение сторон : 16:9
Частота кадров : 23,976 кадра/сек
Цветовое пространство : YUV
Субдискретизация насыщенности : 4:2:0
Битовая глубина : 8 бит
Тип развёртки : Прогрессивная
Бит/(Пиксели*Кадры) : 0.186
Размер потока : 6,83 Гбайт (88%)
Заголовок : Release by AlexKa
Библиотека кодирования : x264 core 125 r2200 999b753
Настройки программы : cabac=1 / ref=4 / deblock=1:-3:-3 / analyse=0x3:0x133 / me=umh / subme=10 / psy=1 / psy_rd=1.00:0.10 / mixed_ref=1 / me_range=32 / chroma_me=1 / trellis=2 / 8x8dct=1 / cqm=0 / deadzone=21,11 / fast_pskip=0 / chroma_qp_offset=-3 / threads=12 / lookahead_threads=2 / sliced_threads=0 / nr=0 / decimate=0 / interlaced=0 / bluray_compat=0 / constrained_intra=0 / bframes=5 / b_pyramid=2 / b_adapt=2 / b_bias=0 / direct=3 / weightb=1 / open_gop=0 / weightp=2 / keyint=240 / keyint_min=23 / scenecut=40 / intra_refresh=0 / rc_lookahead=60 / rc=2pass / mbtree=1 / bitrate=9260 / ratetol=1.0 / qcomp=0.60 / qpmin=0 / qpmax=69 / qpstep=4 / cplxblur=20.0 / qblur=0.5 / ip_ratio=1.40 / aq=1:1.00
Язык : English
Аудио #1
Идентификатор : 2
Формат : AC-3
Формат/Информация : Audio Coding 3
Расширение режима : CM (complete main)
Идентификатор кодека : A_AC3
Продолжительность : 1 ч. 47 м.
Вид битрейта : Постоянный
Битрейт : 384 Кбит/сек
Каналы : 6 каналов
Расположение каналов : Front: L C R, Side: L R, LFE
Частота : 48,0 КГц
Битовая глубина : 16 бит
Метод сжатия : С потерями
Размер потока : 297 Мбайт (4%)
Заголовок : Rus
Язык : Russian
Аудио #2
Идентификатор : 3
Формат : AC-3
Формат/Информация : Audio Coding 3
Расширение режима : CM (complete main)
Идентификатор кодека : A_AC3
Продолжительность : 1 ч. 47 м.
Вид битрейта : Постоянный
Битрейт : 640 Кбит/сек
Каналы : 6 каналов
Расположение каналов : Front: L C R, Side: L R, LFE
Частота : 48,0 КГц
Битовая глубина : 16 бит
Метод сжатия : С потерями
Размер потока : 494 Мбайт (6%)
Заголовок : Eng
Язык : English
Текст #1
Идентификатор : 4
Формат : UTF-8
Идентификатор кодека : S_TEXT/UTF8
Идентификатор кодека/Информация : UTF-8 Plain Text
Заголовок : Rus forced
Язык : Russian
Текст #2
Идентификатор : 5
Формат : UTF-8
Идентификатор кодека : S_TEXT/UTF8
Идентификатор кодека/Информация : UTF-8 Plain Text
Заголовок : Rus
Язык : Russian
Текст #3
Идентификатор : 6
Формат : UTF-8
Идентификатор кодека : S_TEXT/UTF8
Идентификатор кодека/Информация : UTF-8 Plain Text
Заголовок : Eng
Язык : English
Меню
00:00:00.000 : :Chapter 01
00:06:49.534 : :Chapter 02
00:12:48.642 : :Chapter 03
00:20:24.890 : :Chapter 04
00:28:22.367 : :Chapter 05
00:36:31.063 : :Chapter 06
00:42:30.839 : :Chapter 07
00:48:05.757 : :Chapter 08
00:54:32.060 : :Chapter 09
01:03:02.028 : :Chapter 10
01:08:20.262 : :Chapter 11
01:14:42.603 : :Chapter 12
01:19:35.687 : :Chapter 13
01:25:51.688 : :Chapter 14
01:30:05.608 : :Chapter 15
01:35:59.170 : :Chapter 16
01:47:58.263 : :Chapter 17

x264

x264 [info]: frame I:1268 Avg QP:16.49 size:283000
x264 [info]: frame P:32167 Avg QP:19.55 size: 93882
x264 [info]: frame B:121894 Avg QP:22.21 size: 33795
[Профиль] [ЛС]
Показать сообщения:    

Текущее время: Сегодня 16:34

Часовой пояс: GMT



Вы не можете начинать темы
Вы не можете отвечать на сообщения
Вы не можете редактировать свои сообщения
Вы не можете удалять свои сообщения
Вы не можете голосовать в опросах
Вы не можете прикреплять файлы к сообщениям
Вы не можете скачивать файлы