Лекарь: Ученик Авиценны / The Physician (2013) BDRip 720p от ExKinoRay | ESP Transfer | D | Лицензия

 
Автор Сообщение

Russian Mafia ®

Пол:

Стаж: 1 год 8 месяцев

Сообщений: 4257



Награды: 10 (Подробнее)

Mega Seeder 3 (Количество: 1) Mega Seeder 2 (Количество: 1) Top Releaser 2 (Количество: 1)
Торрент-статистика

Создавать темы 07-Авг-2016 12:52

[Цитировать]

Информация о фильме
Название: Лекарь: Ученик Авиценны
Оригинальное название: The Physician
Год выпуска: 2013
Жанр: Драма, приключения
Выпущено: Германия, UFA Cinema, ARD Degeto Film, Beta Cinema
Режиссер: Филипп Штёльцль
В ролях: Том Пэйн, Бен Кингсли, Эмма Ригби, Стеллан Скарсгард, Оливье Мартинес, Элиас ЭмБарек, Майкл Джибсон, Стэнли Таунсенд, Майкл Маркус Морган, Адам Томас Райт
О фильме: Англия, XI век. Мать десятилетнего Роба Коула умирает в страшных мучениях: никто не знает ни природы её болезни, ни лекарства против неё. Маленький Роб, потрясенный до глубины души, во что бы то ни стало стремится разгадать эту тайну.Ему суждено пройти долгий путь, от Англии до Персии, его учителями становятся сначала обыкновенный шарлатан Барбер, а потом — великий лекарь Авиценна. Мудрый учитель видит в Робе необыкновенный талант к медицине, но советует ему не спешить делать вещи, которые не соответствуют веку. Но Роб ни перед чем не останавливается в своем желании научиться спасать людей от смерти, и над его собственной жизнью нависает угроза, ведь он дважды пошел против предрассудков: использовал для научных исследований тело человека и полюбил женщину, отданную в жены другому.

Файл
Качество: BDRip (720p)
Видео: MPEG-4 AVC, 4150 Kбит/с, 1280x544, 24 кадр/с
Аудио: Русский (АС3, 6 ch, 640 Кбит/с), (DTS, 6 ch, 1509 Кбит/с), английский (DTS, 6 ch, 1509 Кбит/с)
Размер: 8.45 ГБ
Продолжительность: 02:34:46
Перевод: Дублированный
Субтитры: Русские
За исходник, большое спасибо HDClub & Прагматик
Сохранены оригинальные чаптеры как на Blu-Ray.
Озвучивание: Дублированное (лицензия)
Сравнение трансферов

Инфо-файл

x264 [info]: frame I:1919 Avg QP:12.53 size:157053
x264 [info]: frame P:46651 Avg QP:16.09 size: 53595
x264 [info]: frame B:174782 Avg QP:19.42 size: 11540
--------------------------------------------------------
Общее
Уникальный идентификатор : 188450916078267288625575181770454096010 (0x8DC65383F4A858FFA881EFE28F56588A)
Полное имя : D:ЗагрузкиThe.Physician.2013.x264.BDRip.(720p).ExKinoRay.mkv
Формат : Matroska
Версия формата : Version 2
Размер файла : 8,45 Гбайт
Продолжительность : 2 ч. 35 м.
Общий поток : 7804 Кбит/сек
Название фильма : Лекарь: Ученик Авиценны.2013.Rip by: ollan
Дата кодирования : UTC 2014-06-29 05:04:37
Программа кодирования : mkvmerge v5.6.0 ('Kenya Kane') built on May 27 2012 16:44:04
Библиотека кодирования : libebml v1.2.3 + libmatroska v1.3.0
Видео
Идентификатор : 1
Формат : AVC
Формат/Информация : Advanced Video Codec
Профиль формата : High@L4.1
Параметр CABAC формата : Да
Параметр ReFrames формата : 9 кадров
Идентификатор кодека : V_MPEG4/ISO/AVC
Продолжительность : 2 ч. 35 м.
Битрейт : 4150 Кбит/сек
Ширина : 1280 пикселей
Высота : 544 пикселя
Соотношение сторон : 2,35:1
Режим частоты кадров : Постоянный
Частота кадров : 24,000 кадра/сек
Цветовое пространство : YUV
Субдискретизация насыщенности : 4:2:0
Битовая глубина : 8 бит
Тип развёртки : Прогрессивная
Бит/(Пиксели*Кадры) : 0.248
Размер потока : 4,32 Гбайт (51%)
Библиотека кодирования : x264 core 125 r2200 999b753
Настройки программы : cabac=1 / ref=9 / deblock=1:-3:-3 / analyse=0x3:0x133 / me=umh / subme=11 / psy=1 / psy_rd=1.00:0.10 / mixed_ref=1 / me_range=32 / chroma_me=1 / trellis=2 / 8x8dct=1 / cqm=0 / deadzone=21,11 / fast_pskip=0 / chroma_qp_offset=-3 / threads=12 / lookahead_threads=2 / sliced_threads=0 / nr=0 / decimate=0 / interlaced=0 / bluray_compat=0 / constrained_intra=0 / bframes=9 / b_pyramid=2 / b_adapt=2 / b_bias=0 / direct=3 / weightb=1 / open_gop=0 / weightp=2 / keyint=240 / keyint_min=23 / scenecut=40 / intra_refresh=0 / rc_lookahead=40 / rc=2pass / mbtree=1 / bitrate=4150 / ratetol=1.0 / qcomp=0.60 / qpmin=0 / qpmax=69 / qpstep=4 / cplxblur=20.0 / qblur=0.5 / ip_ratio=1.40 / aq=1:1.00
Язык : English
Default : Да
Forced : Нет
Аудио #1
Идентификатор : 2
Формат : AC-3
Формат/Информация : Audio Coding 3
Расширение режима : CM (complete main)
Параметр Endianness формата : Big
Идентификатор кодека : A_AC3
Продолжительность : 2 ч. 35 м.
Вид битрейта : Постоянный
Битрейт : 640 Кбит/сек
Каналы : 6 каналов
Расположение каналов : Front: L C R, Side: L R, LFE
Частота : 48,0 КГц
Битовая глубина : 16 бит
Метод сжатия : С потерями
Размер потока : 710 Мбайт (8%)
Заголовок : Дублированный (Лицензия)
Язык : Russian
Default : Да
Forced : Нет
Аудио #2
Идентификатор : 3
Формат : DTS
Формат/Информация : Digital Theater Systems
Режим : 16
Параметр Endianness формата : Big
Идентификатор кодека : A_DTS
Продолжительность : 2 ч. 35 м.
Вид битрейта : Постоянный
Битрейт : 1509 Кбит/сек
Каналы : 6 каналов
Расположение каналов : Front: L C R, Side: L R, LFE
Частота : 48,0 КГц
Битовая глубина : 16 бит
Метод сжатия : С потерями
Размер потока : 1,63 Гбайт (19%)
Заголовок : Дублированный (Лицензия)
Язык : Russian
Default : Нет
Forced : Нет
Аудио #3
Идентификатор : 4
Формат : DTS
Формат/Информация : Digital Theater Systems
Режим : 16
Параметр Endianness формата : Big
Идентификатор кодека : A_DTS
Продолжительность : 2 ч. 35 м.
Вид битрейта : Постоянный
Битрейт : 1509 Кбит/сек
Каналы : 6 каналов
Расположение каналов : Front: L C R, Side: L R, LFE
Частота : 48,0 КГц
Битовая глубина : 16 бит
Метод сжатия : С потерями
Размер потока : 1,63 Гбайт (19%)
Язык : English
Default : Нет
Forced : Нет
Текст
Идентификатор : 5
Формат : UTF-8
Идентификатор кодека : S_TEXT/UTF8
Идентификатор кодека/Информация : UTF-8 Plain Text
Заголовок : Full
Язык : Russian
Default : Нет
Forced : Нет
Меню
00:00:00.000 : :Chapter 01
00:14:53.707 : :Chapter 02
00:23:46.791 : :Chapter 03
00:32:22.750 : :Chapter 04
00:42:15.875 : :Chapter 05
00:53:59.457 : :Chapter 06
01:04:23.083 : :Chapter 07
01:14:37.750 : :Chapter 08
01:25:50.791 : :Chapter 09
01:36:40.250 : :Chapter 10
01:46:43.291 : :Chapter 11
01:55:46.250 : :Chapter 12
02:02:24.458 : :Chapter 13
02:12:18.667 : :Chapter 14
02:25:07.167 : :Chapter 15

Скриншоты



Релиз от: Rip by:
[Профиль] [ЛС]
Показать сообщения:    

Текущее время: Сегодня 06:22

Часовой пояс: GMT



Вы не можете начинать темы
Вы не можете отвечать на сообщения
Вы не можете редактировать свои сообщения
Вы не можете удалять свои сообщения
Вы не можете голосовать в опросах
Вы не можете прикреплять файлы к сообщениям
Вы не можете скачивать файлы