Лекарство от Глупости (Сергей Краус) [2015, Документальный, HDTV 720p]

 
Автор Сообщение

TorrentFilm ®

Пол:

Стаж: 2 года

Сообщений: 7741



Награды: Нет

Торрент-статистика

Создавать темы 19-Апр-2015 00:02

[Цитировать]

Лекарство от Глупости- Год выпуска: 2015
Страна: Россия
Канал: Россия HD
Жанр: Документальный
Продолжительность: 0:44:07
Автор сценария: Ольга Демина
Режиссер: Сергей Краус-Описание: Каждая мать мечтает о том, чтобы ее малыш стал здоровым, сильным и умным. Однако выдающихся людей всегда значительно меньше, чем среднестатистических. От чего зависит уровень интеллекта? Можно ли его развить? И как это сделать? С ребенком здесь все более или менее ясно – его нужно воспитывать и образовывать. А как можно повысить интеллект у взрослого? Есть ли в нашем распоряжении хоть что-то, что можно смело назвать "лекарством от глупости"?-Автор рипа: lrn
Автор записи: Generalfilm
Сэмпл: sendfile-Тип релиза: HDTV 720p
Контейнер: MKV
Видео: 1280x720 (16:9), 25,000 fps, H264, ~4000 kbps avg, ~0.174 bit/pixel
Аудио: 48 kHz, AC3 Dolby Digital, 2/0 (L,R) ch, ~192.00 kbps avg-

MediaInfo

GeneralUnique ID : 229285670069502537704424120268164695444 (0xAC7ED053EC7A833E968D722914A00594)Complete name : E:\uTorrent.Temp\Temp\Lekarstvo.Ot.Gluposti.2015.HDTV.720p.x264-lrn.mkvFormat : MatroskaFormat version : Version 4 / Version 2File size : 1.29 GiBDuration : 44mn 7sOverall bit rate : 4 193 KbpsMovie name : Lekarstvo.Ot.Gluposti.2015.HDTV.720p.x264-lrnEncoded date : UTC 2010-02-22 21:41:31Writing application : mkvmerge v5.9.0 ('On The Loose') built on Dec 9 2012 15:37:01Writing library : libebml v1.3.0 + libmatroska v1.4.0DURATION : 00:44:07.520000000NUMBER_OF_FRAMES : 66188NUMBER_OF_BYTES : 1323537457_STATISTICS_WRITING_APP : mkvmerge v7.0.0 ('Where We Going') 32bit built on Jun 9 2014 15:08:34_STATISTICS_WRITING_DATE_UT : 2015-04-02 15:38:44_STATISTICS_TAGS : BPS DURATION NUMBER_OF_FRAMES NUMBER_OF_BYTES
VideoID : 1Format : AVCFormat/Info : Advanced Video CodecFormat profile : High@L4.1Format settings, CABAC : YesFormat settings, ReFrames : 8 framesCodec ID : V_MPEG4/ISO/AVCDuration : 44mn 7sBit rate : 4 000 KbpsWidth : 1 280 pixelsHeight : 720 pixelsDisplay aspect ratio : 16:9Frame rate mode : ConstantFrame rate : 25.000 fpsColor space : YUVChroma subsampling : 4:2:0Bit depth : 8 bitsScan type : ProgressiveBits/(Pixel*Frame) : 0.174Stream size : 1.21 GiB (93%)Writing library : x264 core 142 r2431 ac76440Encoding settings : cabac=1 / ref=8 / deblock=1:-3:-3 / analyse=0x3:0x133 / me=umh / subme=9 / psy=1 / psy_rd=1.00:0.00 / mixed_ref=1 / me_range=32 / chroma_me=1 / trellis=2 / 8x8dct=1 / cqm=0 / deadzone=21,11 / fast_pskip=1 / chroma_qp_offset=-2 / threads=12 / lookahead_threads=2 / sliced_threads=0 / nr=0 / decimate=1 / interlaced=0 / bluray_compat=0 / constrained_intra=0 / bframes=8 / b_pyramid=2 / b_adapt=2 / b_bias=0 / direct=3 / weightb=1 / open_gop=0 / weightp=2 / keyint=250 / keyint_min=25 / scenecut=40 / intra_refresh=0 / rc_lookahead=50 / rc=2pass / mbtree=1 / bitrate=4000 / ratetol=1.0 / qcomp=0.60 / qpmin=0 / qpmax=69 / qpstep=4 / cplxblur=20.0 / qblur=0.5 / vbv_maxrate=62500 / vbv_bufsize=78125 / nal_hrd=none / filler=0 / ip_ratio=1.40 / aq=1:1.00Default : YesForced : No
AudioID : 2Format : AC-3Format/Info : Audio Coding 3Mode extension : CM (complete main)Format settings, Endianness : BigCodec ID : A_AC3Duration : 44mn 7sBit rate mode : ConstantBit rate : 192 KbpsChannel(s) : 2 channelsChannel positions : Front: L RSampling rate : 48.0 KHzBit depth : 16 bitsCompression mode : LossyStream size : 60.6 MiB (5%)Language : RussianDefault : YesForced : No

x264 log

raw [info]: 1280x720p 1:1 @ 25/1 fps (cfr)x264 [info]: using SAR=1/1x264 [info]: using cpu capabilities: MMX2 SSE2Fast SSSE3 SSE4.2 AVXx264 [info]: profile High, level 4.1x264 [info]: frame I:763 Avg QP:11.73 size:100008x264 [info]: frame P:18290 Avg QP:15.00 size: 38076x264 [info]: frame B:47135 Avg QP:16.83 size: 11686x264 [info]: consecutive B-frames: 5.8% 5.5% 8.9% 42.9% 18.1% 12.1% 2.6% 2.5% 1.6%x264 [info]: mb I I16..4: 8.2% 65.3% 26.5%x264 [info]: mb P I16..4: 4.9% 22.3% 3.3% P16..4: 31.6% 19.8% 11.3% 0.6% 0.2% skip: 6.0%x264 [info]: mb B I16..4: 1.0% 2.9% 0.4% B16..8: 34.1% 14.2% 3.3% direct: 8.8% skip:35.3% L0:43.8% L1:44.6% BI:11.6%x264 [info]: 8x8 transform intra:70.9% inter:58.4%x264 [info]: direct mvs spatial:97.8% temporal:2.2%x264 [info]: coded y,uvDC,uvAC intra: 60.4% 85.9% 61.7% inter: 20.0% 37.7% 5.4%x264 [info]: i16 v,h,dc,p: 39% 16% 5% 40%x264 [info]: i8 v,h,dc,ddl,ddr,vr,hd,vl,hu: 22% 16% 16% 6% 7% 8% 8% 8% 9%x264 [info]: i4 v,h,dc,ddl,ddr,vr,hd,vl,hu: 26% 17% 10% 5% 10% 10% 9% 6% 6%x264 [info]: i8c dc,h,v,p: 41% 25% 22% 13%x264 [info]: Weighted P-Frames: Y:1.2% UV:0.3%x264 [info]: ref P L0: 57.4% 7.8% 16.0% 5.9% 4.5% 3.3% 2.8% 2.0% 0.3% 0.0%x264 [info]: ref B L0: 76.1% 11.9% 5.4% 2.7% 2.1% 1.2% 0.6%x264 [info]: ref B L1: 93.0% 7.0%x264 [info]: kb/s:3999.33encoded 66188 frames, 14.53 fps, 3999.33 kb/s

Скриншоты

-
[Профиль] [ЛС]
Показать сообщения:    

Текущее время: Сегодня 18:51

Часовой пояс: GMT



Вы не можете начинать темы
Вы не можете отвечать на сообщения
Вы не можете редактировать свои сообщения
Вы не можете удалять свои сообщения
Вы не можете голосовать в опросах
Вы не можете прикреплять файлы к сообщениям
Вы не можете скачивать файлы