Ледяные замки / Ice Castles (Дональд Рай / Donald Wrye) [2010, США, Канада, драма, мелодрама, спорт, DVDRip] MVO (СТС) + Original Eng

 
Автор Сообщение

TorrentFilm ®

Пол:

Стаж: 2 года

Сообщений: 7741



Награды: Нет

Торрент-статистика

Создавать темы 02-Май-2015 00:03

[Цитировать]

Ледяные замки / Ice Castles
Страна: США, Канада
Жанр: драма, мелодрама, спорт
Год выпуска: 2010
Продолжительность: 01:31:16
Перевод: Профессиональный (многоголосый закадровый) СТС
Cубтитры: нет
Оригинальная аудиодорожка: английский
Режиссер: Дональд Рай / Donald Wrye
В ролях: Ив Кроуфорд, Генри Черни, Джиллиан Феррье, Тейлор Фёрт, Крис Фьюдж, Майкл Хиггинс, Таттиона Джонс, Морган Келли, Эми Керр, Мишель Кван
Описание: Алексис Винстон — молодая девушка, которая мечтает стать чемпионкой по фигурному катанию. Во время катания на льду, сделав неудачный прыжок, c ней случается несчастье и это угрожает разрушить все ее мечты. Посреди этих переживаний ее друг Ник вместе с ее семьей помогает ей понять, что она все еще может исполнить свои мечты.
Сэмпл: http://multi-up.com/1043710
Качество видео: DVDRip
Формат видео: AVI
Видео: MPEG4, XviD, 720x384 (1.875), 25.000 fps, 1 692 Kbps (0.245 bit/pixel)
Аудио: AC-3, 48.0 KHz, 2 ch, 192 Kbps, CBR - русский
Аудио 2: AC-3, 48.0 KHz, 6 ch, 384 Kbps, CBR - английский

MediaInfo

Общее
Полное имя : K:\Ледяные замки.avi
Формат : AVI
Формат/Информация : Audio Video Interleave
Размер файла : 1,46 Гбайт
Продолжительность : 1 ч. 31 м.
Общий поток : 2282 Кбит/сек
Название фильма : Ледяные замки / Ice Castles (2010)
Программа кодирования : VirtualDubMod 1.5.10.2 (build 2540/release)
Библиотека кодирования : VirtualDubMod build 2540/release
Правообладатель : miha2154
Видео
Идентификатор : 0
Формат : MPEG-4 Visual
Профиль формата : Advanced Simple@L5
Параметр BVOP формата : 1
Параметр QPel формата : Нет
Параметр GMC формата : Без точки перехода
Параметр матрицы формата : Выборочная
Идентификатор кодека : XVID
Идентификатор кодека/Подсказка : XviD
Продолжительность : 1 ч. 31 м.
Битрейт : 1692 Кбит/сек
Ширина : 720 пикселей
Высота : 384 пикселя
Соотношение сторон : 1,85:1
Частота кадров : 25,000 кадров/сек
Цветовое пространство : YUV
Субдискретизация насыщенности : 4:2:0
Битовая глубина : 8 бит
Тип развёртки : Прогрессивная
Метод сжатия : С потерями
Бит/(Пиксели*Кадры) : 0.245
Размер потока : 1,08 Гбайт (74%)
Библиотека кодирования : XviD 65
Аудио #1
Идентификатор : 1
Формат : AC-3
Формат/Информация : Audio Coding 3
Расширение режима : CM (complete main)
Параметр Endianness формата : Big
Идентификатор кодека : 2000
Продолжительность : 1 ч. 31 м.
Вид битрейта : Постоянный
Битрейт : 192 Кбит/сек
Каналы : 2 канала
Расположение каналов : Front: L R
Частота : 48,0 КГц
Битовая глубина : 16 бит
Метод сжатия : С потерями
Размер потока : 125 Мбайт (8%)
Выравнивание : Разделение по промежуткам
Продолжительность промежутка : 40 мс. (1,00 видеокадр)
Время предзагрузки промежутка : 500 мс.
Заголовок : Профессиональный (многоголосый закадровый) СТС
Аудио #2
Идентификатор : 2
Формат : AC-3
Формат/Информация : Audio Coding 3
Расширение режима : CM (complete main)
Параметр Endianness формата : Big
Идентификатор кодека : 2000
Продолжительность : 1 ч. 31 м.
Вид битрейта : Постоянный
Битрейт : 384 Кбит/сек
Каналы : 6 каналов
Расположение каналов : Front: L C R, Side: L R, LFE
Частота : 48,0 КГц
Битовая глубина : 16 бит
Метод сжатия : С потерями
Размер потока : 251 Мбайт (17%)
Выравнивание : Разделение по промежуткам
Продолжительность промежутка : 40 мс. (1,00 видеокадр)
Время предзагрузки промежутка : 500 мс.
Заголовок : Английский

Скриншоты



[Профиль] [ЛС]

Создавать темы 06-Авг-2015 22:35 (спустя 3 месяца 4 дня)

Топик был перенесен из форума Фильмы до 2014 года в форум Фильмы до 2012 года
sergej644
 

Создавать темы 12-Июн-2016 07:54 (спустя 1 год 1 месяц)

Топик был перенесен из форума Фильмы 2011 года в форум Фильмы 2010 года
Russian Mafia
 
Кто просматривает тему:

Форум Тема Автор Размер
National Geographic NG: Вся правда о ледяном человеке / Iceman Autopsy (Дэвид Мердок) [2011 г., Документальный, научно-познавательный, исследование, HDTVRip 720p] skorpionN 1.5 GB
Фантастика, фэнтези Джон Ширли - Гримм. Ледяное прикосновение (2016) FB2 достали все 1 MB
R.G.TorrentFilm Video Замороженные солдаты / Ледяные солдаты / Ice Soldiers (Стурла Гуннарссон / Sturla Gunnarsson) [2013, Канада, Фантастика, боевик, HDRip] MVO (Лицензия) Один 777 746 MB
Зарубежные Ледяная комета 3D в 3Д / Bing Fung: Chung Sang Chi Mun / Iceman 3D (Винг-Чеонг Лау / Wing-cheong Law) [2014, Фантастика, Боевик, Комедия, История, BDrip-AVC] DVO-GreenTea, Half ... TorrentFilm 9.22 GB
Фильмы 2014 года Ледяная угроза / Christmas Icetastrophe (2014) HDRip | P достали все 1.37 GB
Фильмы 2014 года Ледяной лес / La foresta di ghiaccio (2014) DVDRip | P достали все 1.37 GB
Фильмы 2014 года Ледяной лес / La foresta di ghiaccio (2014) DVDRip | Лицензия достали все 746 MB
Фильмы 2014 года Ледяной лес / La foresta di ghiaccio (Клаудио Ноче) [2014, Триллер] DVDRip | Лицензия BOSS 2.05 GB
Показать сообщения:    

Текущее время: Сегодня 21:01

Часовой пояс: GMT



Вы не можете начинать темы
Вы не можете отвечать на сообщения
Вы не можете редактировать свои сообщения
Вы не можете удалять свои сообщения
Вы не можете голосовать в опросах
Вы не можете прикреплять файлы к сообщениям
Вы не можете скачивать файлы