Ледовые пираты / The Ice Pirates (Стюарт Рэффил) [1984 г., фантастика, боевик, комедия, приключения, BDRip-AVC] [MVO]

 
Автор Сообщение

Bathory ®

Пол:

Стаж: 8 месяцев 26 дней

Сообщений: 168



Награды: 3 (Подробнее)

За внесенный вклад в развитие сайта (Количество: 1) Girls (Количество: 1) Друг (Количество: 1)
Торрент-статистика

Создавать темы 08-Мар-2016 11:33

[Цитировать]

Ледовые пираты / The Ice Pirates- Информация о фильме
Название: Ледовые пираты
Оригинальное название: The Ice Pirates
Год выхода: 1984
Жанр: фантастика, боевик, комедия, приключения
Режиссер: Стюарт Рэффил
В ролях: Роберт Урих, Мэри Кросби, Майкл Д. Робертс, Анджелика Хьюстон, Джон Матушак, Рон Перлман, Джон Кэррадайн, Натали Кор, Джереми Уэст, Брюс Виленч
О фильме:
В начале четвертого тысячелетия в Галактике наступил сушняк — всю воду выпили. Перебиваются квасом и ракетным топливом. Но по воде скучают страшно, вплоть до рубки на мечах. Плюс боевые роботы где-то тут же бегают и мешают блистать космическим принцессам…

Страна: США
Студия: JF Productions, Metro-Goldwyn-Mayer
Продолжительность: 01:33:59
Перевод: Профессиональный (многоголосый закадровый) СВ-кадр по заказу ТНТ
Файл
Кодек: AVC
Качество: BDRip-AVC
Видео: 1024x576, 2734 kbps, 23,976 fps, 0,193 Bits/(Pixel*Frame)
Звук:
1. AC3, 48 kHz, 2 ch, 192 kbps - RUS MVO
2. AC3, 48 kHz, 2 ch, 192 kbps - ENG Original
Субтитры: английские
Главы: есть

Скриншоты

MI

General
Unique ID : 254240444210845598200853930338159428828 (0xBF44EDAF6C611EE4B841D988D1CC04DC)
Complete name : G:\The.Ice.Pirates.1984.Rus.Eng.BDRip-AVC_by_Bathory.mkv
Format : Matroska
Format version : Version 4 / Version 2
File size : 2.05 GiB
Duration : 1h 33mn
Overall bit rate : 3 119 Kbps
Movie name : Release for RuTracker
Encoded date : UTC 2016-02-25 14:46:47
Writing application : mkvmerge v8.8.0 ('Wind at my back') 64bit
Writing library : libebml v1.3.3 + libmatroska v1.4.4
DURATION : 01:29:34.494000000
NUMBER_OF_FRAMES : 1150
NUMBER_OF_BYTES : 36087
_STATISTICS_WRITING_APP : mkvmerge v8.8.0 ('Wind at my back') 64bit
_STATISTICS_WRITING_DATE_UTC : 2016-02-25 14:46:47
_STATISTICS_TAGS : BPS DURATION NUMBER_OF_FRAMES NUMBER_OF_BYTES
Video
ID : 1
Format : AVC
Format/Info : Advanced Video Codec
Format profile : High@L4.1
Format settings, CABAC : Yes
Format settings, ReFrames : 12 frames
Codec ID : V_MPEG4/ISO/AVC
Duration : 1h 33mn
Bit rate : 2 734 Kbps
Width : 1 024 pixels
Height : 576 pixels
Display aspect ratio : 16:9
Frame rate mode : Constant
Frame rate : 23.976 fps
Color space : YUV
Chroma subsampling : 4:2:0
Bit depth : 8 bits
Scan type : Progressive
Bits/(Pixel*Frame) : 0.193
Stream size : 1.75 GiB (86%)
Writing library : x264 core 148 r2665 a01e339
Encoding settings : cabac=1 / ref=12 / deblock=1:-3:-2 / analyse=0x3:0x133 / me=umh / subme=11 / psy=1 / psy_rd=1.07:0.10 / mixed_ref=1 / me_range=32 / chroma_me=1 / trellis=2 / 8x8dct=1 / cqm=0 / deadzone=21,11 / fast_pskip=0 / chroma_qp_offset=-3 / threads=12 / lookahead_threads=3 / sliced_threads=0 / nr=0 / decimate=0 / interlaced=0 / bluray_compat=0 / constrained_intra=0 / bframes=15 / b_pyramid=2 / b_adapt=2 / b_bias=0 / direct=3 / weightb=1 / open_gop=0 / weightp=2 / keyint=240 / keyint_min=23 / scenecut=0 / intra_refresh=0 / rc_lookahead=60 / rc=2pass / mbtree=1 / bitrate=2734 / ratetol=1.0 / qcomp=0.70 / qpmin=0 / qpmax=69 / qpstep=4 / cplxblur=15.0 / qblur=0.5 / vbv_maxrate=62500 / vbv_bufsize=78125 / nal_hrd=none / filler=0 / ip_ratio=1.40 / aq=2:1.00
Default : Yes
Forced : No
Audio #1
ID : 2
Format : AC-3
Format/Info : Audio Coding 3
Mode extension : CM (complete main)
Format settings, Endianness : Big
Codec ID : A_AC3
Duration : 1h 33mn
Bit rate mode : Constant
Bit rate : 192 Kbps
Channel(s) : 2 channels
Channel positions : Front: L R
Sampling rate : 48.0 KHz
Bit depth : 16 bits
Compression mode : Lossy
Stream size : 129 MiB (6%)
Language : Russian
Default : Yes
Forced : No
Audio #2
ID : 3
Format : AC-3
Format/Info : Audio Coding 3
Mode extension : CM (complete main)
Format settings, Endianness : Big
Codec ID : A_AC3
Duration : 1h 33mn
Bit rate mode : Constant
Bit rate : 192 Kbps
Channel(s) : 2 channels
Channel positions : Front: L R
Sampling rate : 48.0 KHz
Bit depth : 16 bits
Compression mode : Lossy
Stream size : 129 MiB (6%)
Language : English
Default : No
Forced : No
Text
ID : 4
Format : UTF-8
Codec ID : S_TEXT/UTF8
Codec ID/Info : UTF-8 Plain Text
Language : English
Default : No
Forced : No
Menu
00:00:00.000 : en:Stealing Aboard
00:05:13.229 : en:A Real Princess
00:08:46.776 : en:Faulty Equipment
00:11:59.385 : en:Bonus Plunder
00:16:15.724 : en:Captured
00:20:08.373 : en:Arrival on Mithra
00:25:01.666 : en:Close Shave
00:27:14.758 : en:Eunuch Inspection
00:29:36.191 : en:There Goes the Party
00:35:25.289 : en:The Lady Means It
00:38:25.094 : en:Audience With Supreme
00:40:34.849 : en:Space Herpes
00:44:26.413 : en:Pirates Den
00:49:11.406 : en:All to Pieces
00:52:34.734 : en:Lanky Nibs
00:57:30.071 : en:Bounty Hunters Attack
01:02:02.844 : en:What's in Dinner
01:06:47.253 : en:Wendon's World
01:12:12.453 : en:Directions From Dad
01:16:53.525 : en:Environmental Chamber
01:21:17.831 : en:Time-Warp Mess
01:25:09.687 : en:Surprise Surprise
01:27:25.448 : en:Aged in Battle
01:29:51.052 : en:Final Destination
01:31:24.896 : en:End Credits
Автор рипа: Bathory
[Профиль] [ЛС]
Кто просматривает тему:

Форум Тема Автор Размер
365 365: Сети истории / Storia in Rete [выпуски 1-10] (Александра Джиганте / Alessandra Gigante, Фабио Андриола / Fabio Andriola) [2009-2013 г., окументально-постановочный, история, арх... skorpionN 8.01 GB
BBC BBC: Безграничная Римская империя с Мэри Бирд / Mary Beard Ultimate Rome Empire Without Limit [серии 1-4 из 4] (Chris Mitchell) [2015 г., Документальный, история, исследования, HDTVRip-AVC 720p] skorpionN 7.21 GB
BBC BBC: Бессмертный Египет с Джоанн Флетчер (История Египта) / Immortal Egypt with Joann Fletcher (The Story of Egypt) [серии 1-4 из 4] (Ian A. Hunt) [2015 г., Документальный, история, исследования,... skorpionN 7.22 GB
BBC BBC: Восхождение женщины / The Ascent of Woman [серии 1-4 из 4] (Hugo Macgregor) [2015 г., Документальный, история, археология, исследования, HDTVRip 720p] skorpionN 6.28 GB
BBC BBC: Гении древнего мира / Genius Ancient World [серии 1-3 из 3] (Rob Gowling) [2015 г., Документальный, история, исследования, HDTVRip-AVC 720p] skorpionN 5.38 GB
BBC BBC: Женщины эпохи Реставрации (Куртизанки, домохозяйки и героини) / Harlots Housewives and Heroines: A 17th Century History for Girls [серии 1-3 из 3](Nick Gillam-Smith, Eleanor Scoones) [2012 г... skorpionN 4.33 GB
BBC BBC: Жизнь млекопитающих / The Life of Mammals [серии 1-9 из 10] (Марк Линфилд, Нил Лукас, Ванесса Берловитц, Майк Сализбэрри, Хью Кордейт) [2002-2003 г., Документальный, природа, зоология, фау... skorpionN 11.95 GB
BBC BBC: Жизнь на Земле / Life on Earth [серии 1-13 из 13] (Дэвид Аттэнборо) [1979 г., Документальный, флора, фауна, природа, естествознание, исследование, BDRip 720p] skorpionN 24.95 GB
Показать сообщения:    

Текущее время: Сегодня 20:09

Часовой пояс: GMT



Вы не можете начинать темы
Вы не можете отвечать на сообщения
Вы не можете редактировать свои сообщения
Вы не можете удалять свои сообщения
Вы не можете голосовать в опросах
Вы не можете прикреплять файлы к сообщениям
Вы не можете скачивать файлы