Ледниковый период [01-08 из 08] (2002) SATRip-AVC

 
Автор Сообщение

sergej644 ®

Пол:

Стаж: 4 года 11 месяцев

Сообщений: 6041

Откуда: Soviet Union



Награды: Нет

Торрент-статистика

Создавать темы 02-Июн-2015 20:18

[Цитировать]

--Ледниковый период
Информация о фильме
Название: Ледниковый период
Год выхода: 2002
Жанр: Криминальная драма
Режиссер: Александр Буравский
В ролях: Александр Абдулов, Марат Башаров, Александр Бухаров, Павел Деревянко, Елена Коренева, Игорь Лифанов, Владимир Меньшов, Мария Миронова, Сосо Павлиашвили, Игорь Регнер, Ирина Розанова, Андрей Смоляков, Светлана Тимофеева-Летуновская, Рафаэль Мукаев, Егор Пазенко, Сергей Астахов, Александр Гавриков, Заза Наполи, Дмитрий Броничи, Сергей Мищенко, Иван Агапов, Александр Аншютц, Владимир Яканин, Борис Репетур, Михаил Лукашов, Николай Хмелёв, Анна Воронова, Мария Аронова, Александр Резалин, Игорь Бочкин, Александр Песков, Александр Семчев, Владимир Литвинов, Зураб Кипшидзе, Александр Числов, Никита Логинов
О фильме:
Действие происходит в середине 90-х годов. В это время по распоряжению Министерства внутренних дел России был учрежден отдел по борьбе с преступностью и бандитизмом, который прикрепили к МУРу. Была собрана команда из двенадцати человек под руководством подполковника Игоря Клепко. Отважной команде Клепко предстоит вступить в неравную схватку с крупной криминальной группировкой, возглавляемой бандитом по кличке Рокки.
Студия: Россия, Телекомпания "Версия"
Продолжительность: 8 x ~ 00:50:00
Перевод: не требуется
Файл
Кодек: MKV
Качество: SATRip-AVC
Видео: MPEG-4, ~ 2500 Кбит/с, 696x472@742x472, 698x472@744x472
Звук: AC3, 2 ch, 192 Кбит/с

Скриншоты

Медиа-Инфо

raw [info]: 696x472p 16:15 @ 25/1 fps (cfr)
x264 [info]: using SAR=16/15
x264 [info]: using cpu capabilities: MMX2 SSE2Fast SSSE3 SSE4.2 AVX
x264 [info]: profile High, level 4.1
x264 [info]: frame I:596 Avg QP:15.92 size: 58244
x264 [info]: frame P:17536 Avg QP:19.05 size: 24860
x264 [info]: frame B:56149 Avg QP:21.50 size: 8155
=============================================================================================================
Общее
Уникальный идентификатор : 184425298641431189718506710377570993491 (0x8ABF054082CE1D39BEE16FB7A8B78553)
Полное имя : R:МОИ РИПЫЛедниковый период_2002-SATRip-AVCПериод-1.mkv
Формат : Matroska
Версия формата : Version 2
Размер файла : 954 Мбайт
Продолжительность : 49 м.
Общий поток : 2694 Кбит/сек
Дата кодирования : UTC 2015-05-30 06:32:35
Программа кодирования : mkvmerge v5.8.0 ('No Sleep / Pillow') built on Sep 2 2012 15:37:04
Библиотека кодирования : libebml v1.2.3 + libmatroska v1.3.0
Видео
Идентификатор : 1
Формат : AVC
Формат/Информация : Advanced Video Codec
Профиль формата : High@L4.1
Параметр CABAC формата : Да
Параметр ReFrames формата : 14 кадров
Идентификатор кодека : V_MPEG4/ISO/AVC
Продолжительность : 49 м.
Битрейт : 2500 Кбит/сек
Ширина : 696 пикселей
Высота : 472 пикселя
Соотношение сторон : 1,572
Соотношение сторон в оригинале : 1,573
Режим частоты кадров : Постоянный
Частота кадров : 25,000 кадров/сек
Цветовое пространство : YUV
Субдискретизация насыщенности : 4:2:0
Битовая глубина : 8 бит
Тип развёртки : Прогрессивная
Бит/(Пиксели*Кадры) : 0.304
Размер потока : 867 Мбайт (91%)
Библиотека кодирования : x264 core 146 r2538 121396c
Настройки программы : cabac=1 / ref=14 / deblock=1:-2:-2 / analyse=0x3:0x133 / me=umh / subme=10 / psy=1 / psy_rd=1.05:0.15 / mixed_ref=1 / me_range=32 / chroma_me=1 / trellis=2 / 8x8dct=1 / cqm=0 / deadzone=21,11 / fast_pskip=0 / chroma_qp_offset=-3 / threads=12 / lookahead_threads=2 / sliced_threads=0 / nr=0 / decimate=0 / interlaced=0 / bluray_compat=0 / constrained_intra=0 / bframes=7 / b_pyramid=2 / b_adapt=2 / b_bias=0 / direct=3 / weightb=1 / open_gop=0 / weightp=2 / keyint=250 / keyint_min=25 / scenecut=40 / intra_refresh=0 / rc=2pass / mbtree=0 / bitrate=2500 / ratetol=1.0 / qcomp=0.65 / qpmin=0 / qpmax=39 / qpstep=4 / cplxblur=20.0 / qblur=0.5 / ip_ratio=1.40 / pb_ratio=1.30 / aq=1:1.00
Язык : English
Default : Да
Forced : Нет
Основные цвета : BT.601 PAL
Характеристики трансфера : BT.470 System B, BT.470 System G
Коэффициенты матрицы : BT.601
Аудио
Идентификатор : 2
Формат : AC-3
Формат/Информация : Audio Coding 3
Расширение режима : CM (complete main)
Параметр Endianness формата : Big
Идентификатор кодека : A_AC3
Продолжительность : 49 м.
Вид битрейта : Постоянный
Битрейт : 192 Кбит/сек
Каналы : 2 канала
Расположение каналов : Front: L R
Частота : 48,0 КГц
Битовая глубина : 16 бит
Метод сжатия : С потерями
Задержка видео : 10 мс.
Размер потока : 68,0 Мбайт (7%)
Язык : Russian
Default : Да
Forced : Нет
Релиз от:
Спасибо за исходник - Cheef mate
Автор релиза:
[Профиль] [ЛС]
Показать сообщения:    

Текущее время: Сегодня 01:09

Часовой пояс: GMT



Вы не можете начинать темы
Вы не можете отвечать на сообщения
Вы не можете редактировать свои сообщения
Вы не можете удалять свои сообщения
Вы не можете голосовать в опросах
Вы не можете прикреплять файлы к сообщениям
Вы не можете скачивать файлы