Ледниковый Период: Погоня за яйцами / Ice Age: The Great Egg-Scape (2016) WEB-DLRip

 
Автор Сообщение

достали все ®

Пол:

Стаж: 2 года 5 месяцев

Сообщений: 6773



Награды: 12 (Подробнее)

Top Releaser 4 (Количество: 1) За внесенный вклад в развитие сайта (Количество: 1) Top Releaser 3 (Количество: 1)
Торрент-статистика

Создавать темы 21-Мар-2016 13:10

[Цитировать]

Страна: США
Жанр: мультфильм
Год выпуска: 2016
Продолжительность: 00:24:31
Перевод: Профессиональный (дублированный)
Cубтитры: нет
Режиссер: Рикардо Кертис / Ricardo Curtis
В ролях: Блейк Андерсон, Лили Эстефан, Сет Грин, Габриэль Иглесиас, Дэнис Лири, Джон Легуизамо, Джош Пек, Куин Латифа, Рэй Романо, Шонн Уильям Скотт
Описание: Скрэт, Мэнни, Сид, Диего и другие доисторические герои Ледникового Периода в совершенно новом уморительном анимационном приключении! Новый бизнес Сида по высиживанию яиц успешно развивается, но когда подлый кролик –пират Сквинт крадет яйца, Мэнни, Диего и остальные отправляются в бесстрашную спасательную операцию , которой суждено стать первой в истории погоней за яйцами.
Доп. информация: Раздача от:
Качество видео: WEBDLRip
Формат видео: .avi
Видео: 720x400 (1.80:1), 23.976 fps, XviD build 73 ~2202 kbps avg, 0.32 bit/pixel
Аудио: 48 kHz, AC3, 3/2 (L,C,R,l,r) + LFE ch, ~384.00 kbps avg

Отчёт MediaInfo

General
Complete name : E:Ice.Age.The.Great.Egg-Scapade.2016.WEBDLRIp.by.NewTeam.avi
Format : AVI
Format/Info : Audio Video Interleave
File size : 455 MiB
Duration : 24mn 31s
Overall bit rate : 2 596 Kbps
Writing application : VirtualDubMod 1.5.10.3 | www.virtualdub-fr.org || (build 2550/release)
Writing library : VirtualDubMod build 2550/release
Video
ID : 0
Format : MPEG-4 Visual
Format profile : Advanced Simple@L5
Format settings, BVOP : 1
Format settings, QPel : No
Format settings, GMC : No warppoints
Format settings, Matrix : Custom
Codec ID : XVID
Codec ID/Hint : XviD
Duration : 24mn 31s
Bit rate : 2 203 Kbps
Width : 720 pixels
Height : 400 pixels
Display aspect ratio : 16:9
Frame rate : 23.976 fps
Color space : YUV
Chroma subsampling : 4:2:0
Bit depth : 8 bits
Scan type : Progressive
Compression mode : Lossy
Bits/(Pixel*Frame) : 0.319
Stream size : 386 MiB (85%)
Writing library : XviD 73
Audio
ID : 1
Format : AC-3
Format/Info : Audio Coding 3
Mode extension : CM (complete main)
Format settings, Endianness : Big
Codec ID : 2000
Duration : 24mn 31s
Bit rate mode : Constant
Bit rate : 384 Kbps
Channel(s) : 6 channels
Channel positions : Front: L C R, Side: L R, LFE
Sampling rate : 48.0 KHz
Bit depth : 16 bits
Compression mode : Lossy
Stream size : 67.4 MiB (15%)
Alignment : Split accross interleaves
Interleave, duration : 42 ms (1.00 video frame)
Interleave, preload duration : 500 ms

Скриншоты

[Профиль] [ЛС]
Кто просматривает тему:

Форум Тема Автор Размер
Pop (Pop) Анастасия Стоцкая - Последний Шаг - 2015, MP3, 320 kbps достали все 103 MB
Rock (Rock)Кино (Виктор Цой) - Последние записи - 1990 (опубликовано 2002), FLAC (image+.cue), lossless sergej644 466 MB
Rock (Рок) Белый проект - Последний день на Земле - 2015, MP3, 320 kbps достали все 54 MB
Фильмы 2016 года 1898. Последние на Филиппинах / 1898. Los últimos de Filipinas (2016) HDRip | L BOSS 2.05 GB
BBC BBC: Гиганты ледникового периода / Ice Age Giants [серии 1-3 из 3] (Марк Флауэрс) [2013 г., Документальный, научно-познавательный, история, HDTVRip 720p] skorpionN 5.11 GB
BBC BBC: Последние царственные воины Европы (1066: Год, чтобы покорить Англию) / Europe's Last Warrior Kings (1066: A Year to Conquer England) [серии 1-3 из 3](Tim Dunn, Robin Dashwood) [2016 ... skorpionN 10.25 GB
Культура и искусство BBC: Саймон Шама о Рембрандте. Шедевры последних лет / Schama on Rembrandt: Masterpieces of the Late Years (Франк Ханли / Frank Hanly) [2014 г., Документальный, искусство, биография, HDTVRip-AVC... skorpionN 1.75 GB
ТВ - Шоу Comedy Баттл. Последний сезон [01-14 из XX] (2015) WEB-DLRip sergej644 6.82 GB
Показать сообщения:    

Текущее время: Сегодня 04:49

Часовой пояс: GMT



Вы не можете начинать темы
Вы не можете отвечать на сообщения
Вы не можете редактировать свои сообщения
Вы не можете удалять свои сообщения
Вы не можете голосовать в опросах
Вы не можете прикреплять файлы к сообщениям
Вы не можете скачивать файлы