Ледниковый Период: Погоня за яйцами / Ice Age: The Great Egg-Scape (2016) WEB-DLRip

 
Автор Сообщение

достали все ®

Пол:

Стаж: 2 года 3 месяца

Сообщений: 6778



Награды: 12 (Подробнее)

Mega Seeder 4 (Количество: 1) За внесенный вклад в развитие сайта (Количество: 1) Top Releaser 2 (Количество: 1)
Торрент-статистика

Создавать темы 21-Мар-2016 13:10

[Цитировать]

Страна: США
Жанр: мультфильм
Год выпуска: 2016
Продолжительность: 00:24:31
Перевод: Профессиональный (дублированный)
Cубтитры: нет
Режиссер: Рикардо Кертис / Ricardo Curtis
В ролях: Блейк Андерсон, Лили Эстефан, Сет Грин, Габриэль Иглесиас, Дэнис Лири, Джон Легуизамо, Джош Пек, Куин Латифа, Рэй Романо, Шонн Уильям Скотт
Описание: Скрэт, Мэнни, Сид, Диего и другие доисторические герои Ледникового Периода в совершенно новом уморительном анимационном приключении! Новый бизнес Сида по высиживанию яиц успешно развивается, но когда подлый кролик –пират Сквинт крадет яйца, Мэнни, Диего и остальные отправляются в бесстрашную спасательную операцию , которой суждено стать первой в истории погоней за яйцами.
Доп. информация: Раздача от:
Качество видео: WEBDLRip
Формат видео: .avi
Видео: 720x400 (1.80:1), 23.976 fps, XviD build 73 ~2202 kbps avg, 0.32 bit/pixel
Аудио: 48 kHz, AC3, 3/2 (L,C,R,l,r) + LFE ch, ~384.00 kbps avg

Отчёт MediaInfo

General
Complete name : E:Ice.Age.The.Great.Egg-Scapade.2016.WEBDLRIp.by.NewTeam.avi
Format : AVI
Format/Info : Audio Video Interleave
File size : 455 MiB
Duration : 24mn 31s
Overall bit rate : 2 596 Kbps
Writing application : VirtualDubMod 1.5.10.3 | www.virtualdub-fr.org || (build 2550/release)
Writing library : VirtualDubMod build 2550/release
Video
ID : 0
Format : MPEG-4 Visual
Format profile : Advanced Simple@L5
Format settings, BVOP : 1
Format settings, QPel : No
Format settings, GMC : No warppoints
Format settings, Matrix : Custom
Codec ID : XVID
Codec ID/Hint : XviD
Duration : 24mn 31s
Bit rate : 2 203 Kbps
Width : 720 pixels
Height : 400 pixels
Display aspect ratio : 16:9
Frame rate : 23.976 fps
Color space : YUV
Chroma subsampling : 4:2:0
Bit depth : 8 bits
Scan type : Progressive
Compression mode : Lossy
Bits/(Pixel*Frame) : 0.319
Stream size : 386 MiB (85%)
Writing library : XviD 73
Audio
ID : 1
Format : AC-3
Format/Info : Audio Coding 3
Mode extension : CM (complete main)
Format settings, Endianness : Big
Codec ID : 2000
Duration : 24mn 31s
Bit rate mode : Constant
Bit rate : 384 Kbps
Channel(s) : 6 channels
Channel positions : Front: L C R, Side: L R, LFE
Sampling rate : 48.0 KHz
Bit depth : 16 bits
Compression mode : Lossy
Stream size : 67.4 MiB (15%)
Alignment : Split accross interleaves
Interleave, duration : 42 ms (1.00 video frame)
Interleave, preload duration : 500 ms

Скриншоты

[Профиль] [ЛС]
Кто просматривает тему:

Форум Тема Автор Размер
BBC BBC: Последние царственные воины Европы (1066: Год, чтобы покорить Англию) / Europe's Last Warrior Kings (1066: A Year to Conquer England) [серии 1-3 из 3](Tim Dunn, Robin Dashwood) [2016 ... skorpionN 10.25 GB
Отечественные cериалы Истребители (S2, 1-12 из 12) Последний бой (2015) WEB-DLRip Pensioner 8.52 GB
Зарубежные мультфильмы Ледниковый период: Столкновение неизбежно / Ice Age: Collision Course (2016) BDRip | Лицензия достали все 1.45 GB
Зарубежные мультфильмы Ледниковый период: Столкновение неизбежно / Ice Age: Collision Course (2016) BDRip от HELLYWOOD Russian Mafia 2.05 GB
Трейлеры Ледниковый период: Столкновение неизбежно / Ice Age: Collision Course (2016) HDRip-1080p | Трэйлер Russian Mafia 138 MB
BBC Последние короли-воители Европы / Europe's Last Warrior Kings [3 серии из 3][2016, Документальный, война, история, HDTVRip 720p] ZeNArD 4.55 GB
Кино СССР Последний из Сабудара (1957) WEB-DLRip BOSS 1.09 GB
Фильмы 2016 года Последний лепесток (2016) HDTVRip достали все 746 MB
Показать сообщения:    

Текущее время: Сегодня 14:16

Часовой пояс: GMT



Вы не можете начинать темы
Вы не можете отвечать на сообщения
Вы не можете редактировать свои сообщения
Вы не можете удалять свои сообщения
Вы не можете голосовать в опросах
Вы не можете прикреплять файлы к сообщениям
Вы не можете скачивать файлы