Ледники на границе Аляски и Канады / Glaciers of the Alaskan - Canadian Border [2005, Документальный, HDTVRip 720p]

 
Автор Сообщение

TorrentFilm ®

Пол:

Стаж: 2 года

Сообщений: 7741



Награды: Нет

Торрент-статистика

Создавать темы 03-Июн-2015 00:04

[Цитировать]

Ледники на границе Аляски и Канады / Glaciers of the Alaskan - Canadian Border
-Название: Ледники на границе Аляски и Канады
Оригинальное название: Glaciers of the Alaskan - Canadian Border
Жанр: Документальный
Год выпуска: 2005
Страна: Япония, NHK
Продолжительность: 00:51:59
Перевод: Одноголосый закадровый
Русские субтитры: нет
-Режиссёр: Масайоши Ичино / Masayoshi Ichino-Описание: Четыре крупных района на границе США и Канады известны как уникальные природные заповедники. Почти половина этой территории - покрытое снегом и льдом царство вечной зимы. Животный и растительный мир заповедной зоны напрямую зависит от воды стекающей с ледников.
Approximately 10,000 years ago, the upper portion of North America was completely covered by two ice sheets in the east and the west. Nature preserves at the center of the western sheet reveal several expansive glaciers that give a glimpse of what nature looked like during the ice age. This program explores the planet's growth rings carved by the glaciers and the abundant flora and fauna of the area. Viewers also witness the collapse of a 20-story high ice wall, herring hunts by giant whales and magical ice caverns.
-Качество: HDTVRip 720p
Формат видео: MKV
Видео: 1280x716 at 25 fps, x264@L4.1, ~4096 kbps
Аудио: 48 kHz/16-bit, АС 3.0 (L,R) ch, ~448 kbps
-Доп. информация:
-Раздача от: by DeTorquemada-

MediaInfo

GeneralУникальный идентификатор : 212858964562930089626060302800110423610 (0xA02325378327B8E8836B2602ADB30E3A)Полное имя : E:\Мои релизы\Ледники на границе Аляски и Канады Glaciers of the Alaskan - Canadian Border.mkvФормат : MatroskaВерсия формата : Version 4 / Version 2Размер файла : 1.68 GiBПродолжительность : 51mn 59sОбщий поток : 4 636 KbpsНазвание фильма : Create by DeTorquemada for HDCLUBДата кодирования : UTC 2015-05-29 18:08:31Программа кодирования : mkvmerge v7.9.0 ('Birds') 64bitБиблиотека кодирования : libebml v1.3.1 + libmatroska v1.4.2
VideoИдентификатор : 1Формат : AVCФормат/Информация : Advanced Video CodecПрофиль формата : High@L4.1Параметр CABAC формата : YesПараметр ReFrames формата : 8 framesИдентификатор кодека : V_MPEG4/ISO/AVCПродолжительность : 51mn 59sБитрейт : 4 096 KbpsШирина : 1 280 pixelsВысота : 716 pixelsСоотношение сторон : 16:9Режим частоты кадров : ConstantЧастота кадров : 25.000 fpsЦветовое пространство : YUVСубдискретизация насыщенности : 4:2:0Битовая глубина : 8 bitsТип развёртки : ProgressiveБит/(Пиксели*Кадры) : 0.179Размер потока : 1.49 GiB (88%)Заголовок : Ледники на границе Аляски и Канады / Glaciers of the Alaskan - Canadian Border (2005) - Release for HDCLUBБиблиотека кодирования : x264 core 146 r2538 121396cНастройки программы : cabac=1 / ref=8 / deblock=1:-3:-3 / analyse=0x3:0x113 / me=umh / subme=10 / psy=1 / psy_rd=1.00:0.00 / mixed_ref=1 / me_range=48 / chroma_me=1 / trellis=2 / 8x8dct=1 / cqm=0 / deadzone=21,11 / fast_pskip=1 / chroma_qp_offset=-2 / threads=6 / lookahead_threads=1 / sliced_threads=0 / nr=0 / decimate=1 / interlaced=0 / bluray_compat=0 / constrained_intra=0 / bframes=3 / b_pyramid=2 / b_adapt=2 / b_bias=0 / direct=1 / weightb=1 / open_gop=0 / weightp=2 / keyint=250 / keyint_min=25 / scenecut=40 / intra_refresh=0 / rc_lookahead=65 / rc=crf / mbtree=0 / crf=18.0 / qcomp=0.60 / qpmin=0 / qpmax=69 / qpstep=4 / vbv_maxrate=50000 / vbv_bufsize=62500 / crf_max=0.0 / nal_hrd=none / filler=0 / ip_ratio=1.40 / pb_ratio=1.30 / aq=1:0.80Язык : EnglishDefault : YesForced : NoMatrix coefficients : BT.709
AudioИдентификатор : 2Формат : AC-3Формат/Информация : Audio Coding 3Расширение режима : CM (complete main)Параметр Endianness формата : BigИдентификатор кодека : A_AC3Продолжительность : 51mn 59sВид битрейта : ConstantБитрейт : 448 KbpsКаналы : 2 channelsРасположение каналов : Front: L RЧастота : 48.0 KHzБитовая глубина : 16 bitsМетод сжатия : LossyЗадержка видео : 7msРазмер потока : 167 MiB (10%)Заголовок : 48KHz/16-bit, AC3, 2.0 (L,R) ch, 448 kbps - Профессиональный oдноголосыйЯзык : RussianDefault : YesForced : No

-

Скриншоты

-ПРИЯТНОГО ПРОСМОТРА!-
[Профиль] [ЛС]
Показать сообщения:    

Текущее время: Сегодня 06:06

Часовой пояс: GMT



Вы не можете начинать темы
Вы не можете отвечать на сообщения
Вы не можете редактировать свои сообщения
Вы не можете удалять свои сообщения
Вы не можете голосовать в опросах
Вы не можете прикреплять файлы к сообщениям
Вы не можете скачивать файлы