Леди Макбет / Lady Macbeth (2016) BDRip 720p | iTunes

 
Автор Сообщение

BOSS ®

Пол:

Стаж: 3 года

Сообщений: 7633

Откуда: ODESSA



Награды: 22 (Подробнее)

Top Seeder 5 (Количество: 1) Mega Releaser 4 (Количество: 1) Top Keeper 2 (Количество: 1)
Торрент-статистика

Создавать темы 12-Окт-2017 16:08

[Цитировать]

Информация о фильме
Название: Леди Макбет
Оригинальное название: Lady Macbeth
Год выхода: 2016
Жанр: Драма
Режиссер: Уильям Олдройд
В ролях: Флоренс Пью, Космо Джарвис, Пол Хилтон, Кристофер Фэйрбэнк, Голда Рошевель, Ребекка Мэнли, Флер Хаудейк, Клиф Бёрнет
О фильме:
Викторианская Англия 19-го столетия. Небольшая деревня, живущая в соответствии с особыми укладами и нравами, присущими той поре. Молодая девушка по имени Кэтрин проживает скучную и ничем не примечательную жизнь. Всё меняется, когда она узнает, что должна стать супругой мужчины, который вдвое старше её. Новоиспеченная семья относится к Кэтрин с пренебрежением и даёт девушке понять, что ждать заботы и любви в этом доме ей не стоит. Спустя некоторое время Кэтрин заводит знакомство с молодым рабочим фермы своего супруга, и между ними вспыхивает страсть

Страна: Великобритания
Студия: Sixty Six Pictures, BBC Films, British Film Institute (BFI), Creative England, Oldgarth Media, iFeatures
Продолжительность: 01:28:54
Перевод: Профессиональный (многоголосый, закадровый) | iTunes
Файл
Качество: BDRip 720p
Формат: MKV
Кодек: MPEG-4 AVC
Видео: 1280x536 (2,40:1), 24 fps, MPEG-4 AVC ~ 6059 kbps avg, 0.368 bit/pixel
Аудио: АС3, 48,0 kHz, 6 ch, ~384.00 kbps avg | русский | iTunes
Аудио: АС3, 48,0 kHz, 6 ch, ~640.00 kbps avg | английский | Оригинал
Субтитры: Английские

Инфо-файл

Общее
Уникальный идентификатор : 218844642595603878068350205071506124459 (0xA4A3F1EDC59407399D0FB15827F9AEAB)
Полное имя : Lady.Macbeth.2016.720p.BluRay.x264.Rus.Eng.mkv
Формат : Matroska
Версия формата : Version 4 / Version 2
Размер файла : 4,40 Гбайт
Продолжительность : 1 ч. 28 м.
Общий поток : 7085 Кбит/сек
Дата кодирования : UTC 2017-10-12 11:38:53
Программа кодирования : mkvmerge v9.7.1 ('Pandemonium') 64bit
Библиотека кодирования : libebml v1.3.4 + libmatroska v1.4.5
Видео
Идентификатор : 1
Формат : AVC
Формат/Информация : Advanced Video Codec
Профиль формата : High@L4.1
Параметр CABAC формата : Да
Параметр ReFrames формата : 12 кадров
Идентификатор кодека : V_MPEG4/ISO/AVC
Продолжительность : 1 ч. 28 м.
Битрейт : 6059 Кбит/сек
Ширина : 1280 пикселей
Высота : 536 пикселей
Соотношение сторон : 2,40:1
Режим частоты кадров : Постоянный
Частота кадров : 24,000 кадра/сек
Цветовое пространство : YUV
Субдискретизация насыщенности : 4:2:0
Битовая глубина : 8 бит
Тип развёртки : Прогрессивная
Бит/(Пиксели*Кадры) : 0.368
Размер потока : 3,76 Гбайт (86%)
Заголовок : Lady.Macbeth.2016.720p.BluRay.x264.Rus.Eng
Библиотека кодирования : x264 core 152 r2851 ba24899
Настройки программы : cabac=1 / ref=12 / deblock=1:-3:-3 / analyse=0x3:0x113 / me=umh / subme=10 / psy=1 / psy_rd=1.02:0.00 / mixed_ref=1 / me_range=32 / chroma_me=1 / trellis=2 / 8x8dct=1 / cqm=1 / deadzone=21,11 / fast_pskip=0 / chroma_qp_offset=-1 / threads=12 / lookahead_threads=2 / sliced_threads=0 / nr=0 / decimate=1 / interlaced=0 / bluray_compat=0 / constrained_intra=0 / bframes=8 / b_pyramid=2 / b_adapt=2 / b_bias=0 / direct=3 / weightb=1 / open_gop=0 / weightp=2 / keyint=230 / keyint_min=24 / scenecut=40 / intra_refresh=0 / rc_lookahead=40 / rc=crf / mbtree=0 / crf=14.7 / qcomp=0.61 / qpmin=10 / qpmax=69 / qpstep=4 / vbv_maxrate=62500 / vbv_bufsize=78125 / crf_max=0.0 / nal_hrd=none / filler=0 / ip_ratio=1.30 / pb_ratio=1.20 / aq=1:0.75
Язык : English
Default : Да
Forced : Нет
Аудио #1
Идентификатор : 2
Формат : AC-3
Формат/Информация : Audio Coding 3
Параметр Endianness формата : Big
Идентификатор кодека : A_AC3
Продолжительность : 1 ч. 28 м.
Вид битрейта : Постоянный
Битрейт : 384 Кбит/сек
Каналы : 6 каналов
Расположение каналов : Front: L C R, Side: L R, LFE
Частота : 48,0 КГц
Частота кадров : 31,250 кадров/сек (1536 spf)
Битовая глубина : 16 бит
Метод сжатия : С потерями
Размер потока : 244 Мбайт (5%)
Заголовок : iTunes
Язык : Russian
Default : Да
Forced : Нет
Аудио #2
Идентификатор : 3
Формат : AC-3
Формат/Информация : Audio Coding 3
Параметр Endianness формата : Big
Идентификатор кодека : A_AC3
Продолжительность : 1 ч. 28 м.
Вид битрейта : Постоянный
Битрейт : 640 Кбит/сек
Каналы : 6 каналов
Расположение каналов : Front: L C R, Side: L R, LFE
Частота : 48,0 КГц
Частота кадров : 31,250 кадров/сек (1536 spf)
Битовая глубина : 16 бит
Метод сжатия : С потерями
Размер потока : 407 Мбайт (9%)
Язык : English
Default : Нет
Forced : Нет
Текст #1
Идентификатор : 4
Формат : UTF-8
Идентификатор кодека : S_TEXT/UTF8
Идентификатор кодека/Информация : UTF-8 Plain Text
Продолжительность : 1 ч. 20 м.
Битрейт : 25 бит/сек
ElementCount : 482
Размер потока : 14,8 Кбайт (0%)
Язык : English
Default : Нет
Forced : Нет
Текст #2
Идентификатор : 5
Формат : UTF-8
Идентификатор кодека : S_TEXT/UTF8
Идентификатор кодека/Информация : UTF-8 Plain Text
Продолжительность : 1 ч. 20 м.
Битрейт : 27 бит/сек
ElementCount : 566
Размер потока : 16,1 Кбайт (0%)
Заголовок : SDH
Язык : English
Default : Нет
Forced : Нет
Меню
00:00:00.000 : en:Chapter 01
00:07:14.416 : en:Chapter 02
00:14:33.833 : en:Chapter 03
00:21:09.500 : en:Chapter 04
00:27:14.541 : en:Chapter 05
00:36:44.250 : en:Chapter 06
00:45:23.833 : en:Chapter 07
00:55:36.958 : en:Chapter 08
01:02:31.625 : en:Chapter 09
01:11:11.375 : en:Chapter 10
01:18:23.000 : en:Chapter 11
01:24:46.416 : en:Chapter 12

Скриншоты

[Профиль] [ЛС]
Кто просматривает тему:

Показать сообщения:    

Текущее время: Сегодня 18:58

Часовой пояс: GMT



Вы не можете начинать темы
Вы не можете отвечать на сообщения
Вы не можете редактировать свои сообщения
Вы не можете удалять свои сообщения
Вы не можете голосовать в опросах
Вы не можете прикреплять файлы к сообщениям
Вы не можете скачивать файлы