Леди-кошка / Minoes (2001) HDRip| КПК | P

 
Автор Сообщение

Шкипер ®

Пол:

Стаж: 1 год 7 месяцев

Сообщений: 52



Награды: Нет

Торрент-статистика

Создавать темы 26-Авг-2016 12:03

[Цитировать]

Информация о фильме
Название: Леди-кошка
Оригинальное название: Minoes
Год выхода: 2001
Жанр: Фэнтези, комедия, семейный
Режиссер: Винсент Баль
В ролях: Кэрис ван Хаутен, Тео Маассен, Сара Баньер, Пьер Бокма, Ганс Кестинг, Кеес Хюльст, Ольга Зедерхук, Джек Ваутерсе, Лоес Лука, Катя Схурман, Аннет Мальэрб, Ким Ван Кутен, Мариса Ван Эйле, Нина Ван Хаттум
О фильме:
По роману Анни Шмидт. Журналист Тибе начинает публиковать в местной газете сенсационные разоблачающие статьи. Через некоторое время выяснилось, что всю информацию он узнавал от Мурли — девушки с душой кошки. Однажды Мурли выпила загадочное зелье и превратилась в хорошенькую девушку с кошачьими повадками. Она пришла жить к Тибе, истала ему поставлять сенсационные новости, которые узнавала от всех котов округи.

Страна: Нидерланды
Студия: Bos Bros. Film & TV Productions, AVRO Television
Продолжительность: 01:26:06
Перевод: Профессиональный многоголосый (Лицензия)
Файл
Кодек: MP4
Качество: HDRip| КПК
Видео: MPEG4 Video (H264), 480x272. 24fps, 349kbps
Звук: AAC, 44100Hz, 2ch, 125kbps
Субтитры: Отсутствуют
Семпл

MI

General
Complete name : E:Изготовление рипаMinoes.2001.HDRip by shkiper.mp4
Format : MPEG-4
Format profile : Base Media
Codec ID : isom (isom/avc1)
File size : 294 MiB
Duration : 1h 26mn
Overall bit rate mode : Variable
Overall bit rate : 478 Kbps
Encoded date : UTC 2016-08-25 07:21:53
Tagged date : UTC 2016-08-25 07:21:53
Video
ID : 1
Format : AVC
Format/Info : Advanced Video Codec
Format profile : Baseline@L3
Format settings, CABAC : No
Format settings, ReFrames : 1 frame
Codec ID : avc1
Codec ID/Info : Advanced Video Coding
Duration : 1h 26mn
Bit rate : 350 Kbps
Maximum bit rate : 1 040 Kbps
Width : 480 pixels
Height : 272 pixels
Display aspect ratio : 16:9
Frame rate mode : Constant
Frame rate : 24.000 fps
Color space : YUV
Chroma subsampling : 4:2:0
Bit depth : 8 bits
Scan type : Progressive
Bits/(Pixel*Frame) : 0.112
Stream size : 216 MiB (73%)
Title : Imported with GPAC 0.4.6-DEV (internal rev. 5)
Writing library : x264 core 67 r1165M 6841c5e
Encoding settings : cabac=0 / ref=1 / deblock=1:0:0 / analyse=0x1:0 / me=hex / subme=6 / psy_rd=1.0:0.0 / mixed_ref=0 / me_range=16 / chroma_me=1 / trellis=0 / 8x8dct=0 / cqm=0 / deadzone=21,11 / chroma_qp_offset=-2 / threads=3 / nr=0 / decimate=1 / mbaff=0 / bframes=0 / keyint=250 / keyint_min=25 / scenecut=40 / rc=2pass / bitrate=350 / ratetol=1.0 / qcomp=0.60 / qpmin=10 / qpmax=51 / qpstep=4 / cplxblur=20.0 / qblur=0.5 / vbv_maxrate=1500 / vbv_bufsize=2000 / ip_ratio=1.40 / aq=1:1.00
Encoded date : UTC 2016-08-25 07:21:53
Tagged date : UTC 2016-08-25 07:22:25
Audio
ID : 2
Format : AAC
Format/Info : Advanced Audio Codec
Format profile : LC
Codec ID : 40
Duration : 1h 26mn
Bit rate mode : Variable
Bit rate : 126 Kbps
Maximum bit rate : 253 Kbps
Channel(s) : 2 channels
Channel positions : Front: L R
Sampling rate : 44.1 KHz
Frame rate : 43.066 fps (1024 spf)
Compression mode : Lossy
Stream size : 77.4 MiB (26%)
Title : Imported with GPAC 0.4.6-DEV (internal rev. 5)
Encoded date : UTC 2016-08-25 07:22:17
Tagged date : UTC 2016-08-25 07:22:25

Скриншоты

Релиз от:
[Профиль] [ЛС]
Кто просматривает тему:

Показать сообщения:    

Текущее время: Сегодня 08:11

Часовой пояс: GMT



Вы не можете начинать темы
Вы не можете отвечать на сообщения
Вы не можете редактировать свои сообщения
Вы не можете удалять свои сообщения
Вы не можете голосовать в опросах
Вы не можете прикреплять файлы к сообщениям
Вы не можете скачивать файлы