Леди-кошка / Minoes (2001) BDRip 720p от Koenig | P, D

 
Автор Сообщение

Russian Mafia ®

Пол:

Стаж: 1 год 8 месяцев

Сообщений: 4257



Награды: 10 (Подробнее)

Mega Seeder 1 (Количество: 1) Top Releaser 2 (Количество: 1) За внесенный вклад в развитие сайта (Количество: 1)
Торрент-статистика

Создавать темы 12-Авг-2016 06:40

[Цитировать]

Информация о фильме
Название: Леди-кошка
Оригинальное название: Minoes
Год выхода: 2001
Жанр: Фэнтези, комедия, семейный
Режиссер: Винсент Баль
В ролях: Кэрис ван Хаутен, Тео Маассен, Сара Баньер, Пьер Бокма, Ганс Кестинг, Кеес Хюльст, Ольга Зедерхук, Джек Ваутерсе, Лоес Лука, Катя Схурман, Аннет Мальэрб, Ким Ван Кутен, Мариса Ван Эйле, Нина Ван Хаттум
О фильме:
По роману Анни Шмидт. Журналист Тибе начинает публиковать в местной газете сенсационные разоблачающие статьи. Через некоторое время выяснилось, что всю информацию он узнавал от Мурли — девушки с душой кошки. Однажды Мурли выпила загадочное зелье и превратилась в хорошенькую девушку с кошачьими повадками. Она пришла жить к Тибе, истала ему поставлять сенсационные новости, которые узнавала от всех котов округи.
Страна: Нидерланды
Студия: Bos Bros. Film & TV Productions, AVRO Television
Продолжительность: 01:26:06
Перевод: Профессиональный многоголосый, Дублированный
Файл
Качество: BDRip 720p
Видео: MPEG-4 AVC, 6144 Кбит/с, 1280x720, 24 кадр/с
Аудио #1: AC3, 6 ch, 448 Кбит/c | Профессиональный многоголосый (Лицензия)
Аудио #2: AC3, 1 ch, 128 Кбит/c | Дублированный (ТВЦ)
Аудио #3: AC3, 6 ch, 448 Кбит/c | Нидерландский

MediaInfo

General
Unique ID : 206890653366893960628572354632694927411 (0x9BA5B0C18C6376C09348CE628DA49033)
Complete name : Minoes.2001.BDRip.720p.mkv
Format : Matroska
Format version : Version 4 / Version 2
File size : 4.31 GiB
Duration : 1h 26mn
Overall bit rate : 7 167 Kbps
Movie name : Minoes
Director : Vincent Bal
Encoded date : UTC 2016-08-11 18:33:07
Writing application : mkvmerge v9.2.0 ('Photograph') 32bit
Writing library : libebml v1.3.3 + libmatroska v1.4.4
Cover : Yes
Attachments : cover.jpg
Release : Koenig
Video
ID : 1
Format : AVC
Format/Info : Advanced Video Codec
Format profile : High@L4.1
Format settings, CABAC : Yes
Format settings, ReFrames : 9 frames
Codec ID : V_MPEG4/ISO/AVC
Duration : 1h 26mn
Bit rate : 6 144 Kbps
Width : 1 280 pixels
Height : 720 pixels
Display aspect ratio : 16:9
Frame rate mode : Constant
Frame rate : 24.000 fps
Color space : YUV
Chroma subsampling : 4:2:0
Bit depth : 8 bits
Scan type : Progressive
Bits/(Pixel*Frame) : 0.278
Stream size : 3.69 GiB (86%)
Writing library : x264 core 148 r2692 64f4e24
Encoding settings : cabac=1 / ref=9 / deblock=1:-3:-3 / analyse=0x3:0x133 / me=umh / subme=10 / psy=1 / psy_rd=1.00:0.00 / mixed_ref=1 / me_range=32 / chroma_me=1 / trellis=2 / 8x8dct=1 / cqm=0 / deadzone=21,11 / fast_pskip=0 / chroma_qp_offset=-2 / threads=3 / lookahead_threads=1 / sliced_threads=0 / nr=0 / decimate=1 / interlaced=0 / bluray_compat=0 / constrained_intra=0 / bframes=10 / b_pyramid=2 / b_adapt=2 / b_bias=0 / direct=3 / weightb=1 / open_gop=0 / weightp=2 / keyint=240 / keyint_min=24 / scenecut=40 / intra_refresh=0 / rc_lookahead=40 / rc=2pass / mbtree=1 / bitrate=6144 / ratetol=1.0 / qcomp=0.60 / qpmin=10 / qpmax=51 / qpstep=4 / cplxblur=20.0 / qblur=0.5 / vbv_maxrate=50000 / vbv_bufsize=62500 / nal_hrd=none / filler=0 / ip_ratio=1.40 / aq=1:1.00
Default : Yes
Forced : No
Audio #1
ID : 2
Format : AC-3
Format/Info : Audio Coding 3
Mode extension : CM (complete main)
Format settings, Endianness : Big
Codec ID : A_AC3
Duration : 1h 26mn
Bit rate mode : Constant
Bit rate : 448 Kbps
Channel(s) : 6 channels
Channel positions : Front: L C R, Side: L R, LFE
Sampling rate : 48.0 KHz
Frame rate : 31.250 fps (1536 spf)
Compression mode : Lossy
Stream size : 276 MiB (6%)
Title : MVO - Лицензия
Language : Russian
Default : Yes
Forced : No
Audio #2
ID : 3
Format : AC-3
Format/Info : Audio Coding 3
Mode extension : CM (complete main)
Format settings, Endianness : Big
Codec ID : A_AC3
Duration : 1h 26mn
Bit rate mode : Constant
Bit rate : 128 Kbps
Channel(s) : 1 channel
Channel positions : Front: C
Sampling rate : 48.0 KHz
Frame rate : 31.250 fps (1536 spf)
Compression mode : Lossy
Stream size : 78.8 MiB (2%)
Title : DUB - ТВЦ
Language : Russian
Default : No
Forced : No
Audio #3
ID : 4
Format : AC-3
Format/Info : Audio Coding 3
Mode extension : CM (complete main)
Format settings, Endianness : Big
Codec ID : A_AC3
Duration : 1h 26mn
Bit rate mode : Constant
Bit rate : 448 Kbps
Channel(s) : 6 channels
Channel positions : Front: L C R, Side: L R, LFE
Sampling rate : 48.0 KHz
Frame rate : 31.250 fps (1536 spf)
Compression mode : Lossy
Stream size : 276 MiB (6%)
Language : Dutch
Default : No
Forced : No
Menu
00:00:00.000 : en:
00:09:45.000 : en:
00:22:02.000 : en:
00:33:15.000 : en:
00:43:31.000 : en:
00:55:39.000 : en:
01:06:51.000 : en:
01:16:55.000 : en:
01:21:43.000 : en:

Скриншоты

[Профиль] [ЛС]
Кто просматривает тему:

Показать сообщения:    

Текущее время: Сегодня 02:12

Часовой пояс: GMT



Вы не можете начинать темы
Вы не можете отвечать на сообщения
Вы не можете редактировать свои сообщения
Вы не можете удалять свои сообщения
Вы не можете голосовать в опросах
Вы не можете прикреплять файлы к сообщениям
Вы не можете скачивать файлы