Легок на помине (Евгений Абызов) [2014, Россия, комедия, фантастика, DVD5] R5 Original Rus

 
Автор Сообщение

reversefile ®

Пол:

Стаж: 4 года 5 месяцев

Сообщений: 842

Откуда: ReverseFile.org



Награды: Нет

Торрент-статистика

Создавать темы 25-Июл-2014 01:06

[Цитировать]

-Легок на помине -Страна: Россия
Студия: Enjoy Movies
Жанр: комедия, фантастика
Год выпуска: 2014
Мировая премьера: 20 февраля 2014
Российская премьера: 27 февраля 2014, «Каропрокат»
Дата выхода DVD: 8 апреля 2014, «Lizard Cinema Trade»
Дата выхода Blu-Ray: 8 апреля 2014, «Lizard Cinema Trade»
Продолжительность: 01:18:58
Перевод: Оригинал [Лицензия]
Cубтитры: нет
Оригинальная аудиодорожка: русский-Режиссер: Евгений Абызов-В ролях: Гарик Харламов, Кристина Асмус, Екатерина Васильева, Александр Ревва, Татьяна Космачева, Владимир Яглыч, Сергей Сафронов, Юрий Кузнецов, Анна Антонова, Александр Самойленко...-Описание: Молодому и успешному риелтору Павлу, провернувшему немало полулегальных сделок, необходимо получить доверенность на куплю-продажу старинного поместья. А для этого втереться в доверие к владелице недвижимости, одинокой старушке, доживающей свои дни в родовом гнезде. Разработав хитрый план, риелтор-аферист получает заветную бумагу и начинает готовить поместье к продаже, празднуя очередную победу. Но не тут-то было! В отлаженный ход событий вмешиваются высшие силы. С наступлением темноты с Павлом происходят необъяснимые события — он внезапно начинает перемещаться в пространстве…-Бонусы: нет- -Релиз группы: -Качество: DVD5 R5
Формат: DVD-Video
Видео кодек: MPEG2
Аудио кодек: AC3 + DTS
Видео: PAL 16:9 (720x576(0.581)) MPEG Video, 25,000 кадр/сек, 6021 Кбит/сек
Аудио #1: Russian (Dolby AC3, 6 ch) 448 Кбит/сек, 48,0 КГц
Аудио #2: Russian (DTS, 5 ch) 768 Кбит/сек, 48,0 КГц--

DVDInfo

Title: Legok.na.pomine.2014.DVD5
Size: 4.35 Gb ( 4 558 880,00 KBytes ) - DVD-5
Enabled regions: 1, 2, 3, 4, 5, 6, 7, 8
VTS_01 :
Play Length: 00:00:25+{00:00:25}+{00:00:25}
Video: PAL 4:3 (720x576) VBR
Audio:
Russian (Dolby AC3, 6 ch)
English (Dolby AC3, 6 ch)
English (Dolby AC3, 6 ch)
VTS_02 :
Play Length: 01:18:58
Video: PAL 16:9 (720x576) VBR, Auto Pan&Scan, Auto Letterboxed
Audio:
Russian (Dolby AC3, 6 ch)
Russian (DTS, 5 ch)
* Menus Information *
VIDEO_TS Menu
Video:
PAL 4:3 (720x576) VBR
English Language Unit :
Title Menu
VTS_01 Menu
Video:
PAL 4:3 (720x576) VBR
Audio:
Not specified (Dolby AC3, 2 ch)
English Language Unit :
Root Menu
Chapter (PTT) Menu
VTS_02 Menu
Video:
PAL 4:3 (720x576) VBR
English Language Unit :
Root Menu
Audio Menu
Chapter (PTT) Menu

MediaInfo

Общее
Полное имя : D:\Новинки 2014\Legok.na.pomine.2014.DVD5\VIDEO_TS\VTS_02_1.VOB
Формат : MPEG-PS
Размер файла : 1024 Мбайт
Продолжительность : 19 м.
Режим общего битрейта : Переменный
Общий поток : 7370 Кбит/сек
Видео
Идентификатор : 224 (0xE0)
Формат : MPEG Video
Версия формата : Version 2
Профиль формата : Main@Main
Параметр BVOP формата : Да
Параметр матрицы формата : Выборочная
Параметр GOP формата : Variable
Продолжительность : 19 м.
Вид битрейта : Переменный
Битрейт : 6021 Кбит/сек
Максимальный битрейт : 8000 Кбит/сек
Ширина : 720 пикселей
Высота : 576 пикселей
Соотношение сторон : 16:9
Частота кадров : 25,000 кадров/сек
Стандарт вещания : PAL
Цветовое пространство : YUV
Субдискретизация насыщенности : 4:2:0
Битовая глубина : 8 бит
Тип развёртки : Прогрессивная
Метод сжатия : С потерями
Бит/(Пиксели*Кадры) : 0.581
Временной код первого кадра : 00:00:00:00
Оригинал временного кода : Group of pictures header
Размер потока : 837 Мбайт (82%)
Аудио #1
Идентификатор : 189 (0xBD)-128 (0x80)
Формат : AC-3
Формат/Информация : Audio Coding 3
Расширение режима : CM (complete main)
Параметр Endianness формата : Big
Режим смешивания : DVD-Video
Продолжительность : 19 м.
Вид битрейта : Постоянный
Битрейт : 448 Кбит/сек
Каналы : 6 каналов
Расположение каналов : Front: L C R, Side: L R, LFE
Частота : 48,0 КГц
Битовая глубина : 16 бит
Метод сжатия : С потерями
Размер потока : 62,2 Мбайт (6%)
Аудио #2
Идентификатор : 189 (0xBD)-137 (0x89)
Формат : DTS
Формат/Информация : Digital Theater Systems
Режим : 16
Параметр Endianness формата : Big
Режим смешивания : DVD-Video
Продолжительность : 19 м.
Вид битрейта : Постоянный
Битрейт : 755 Кбит/сек
Каналы : 6 каналов
Расположение каналов : Front: L C R, Side: L R, LFE
Частота : 48,0 КГц
Битовая глубина : 24 бит
Метод сжатия : С потерями
Размер потока : 105 Мбайт (10%)

Скриншоты меню

Скриншоты фильма


-
-
[Профиль] [ЛС]

Создавать темы 06-Авг-2015 23:40 (спустя 1 год)

Топик был перенесен из форума Фильмы (HD DVD, Blu-ray и BDRemux) в форум Фильмы (DVD 5/9)
sergej644
 
Показать сообщения:    

Текущее время: Сегодня 11:51

Часовой пояс: GMT



Вы не можете начинать темы
Вы не можете отвечать на сообщения
Вы не можете редактировать свои сообщения
Вы не можете удалять свои сообщения
Вы не можете голосовать в опросах
Вы не можете прикреплять файлы к сообщениям
Вы не можете скачивать файлы