Легкие деньги / Good People (2014) BDRip 1080p от MediaClub | D

 
Автор Сообщение

sergej644 ®

Пол:

Стаж: 4 года 11 месяцев

Сообщений: 6035

Откуда: Soviet Union



Награды: Нет

Торрент-статистика

Создавать темы 15-Июн-2015 21:24

[Цитировать]

--Легкие деньги / Good People Информация о фильме
Название: Легкие деньги / Хорошие люди
Оригинальное название: Good People
Год выхода: 2014
Жанр: Боевик, триллер, криминал
Режиссер: Генрик Рубен Генц
В ролях: Джеймс Франко, Кейт Хадсон, Омар Си, Том Уилкинсон, Сэм Спруэлл, Анна Фрил, Диармэйд Мурта, Диана Хардкэсл, Ласко Аткинс, Майкл Джибсон
О фильме:
Молодая пара Том и Анна Райт попадают в долги из-за семейных проблем. Переживая не лучшие времена, герои триллера «Хорошие люди» вдруг обнаруживают, что жилец в квартире под ними был убит и после себя оставил около 400 тысяч долларов наличными. Перед супругами встает дилемма: взять деньги себе или оставить их в квартире.

Страна: США
Студия: Film 360, Film i Väst , Filmgate Films, Maguire Entertainment, Material Pictures, Millennium Films
Продолжительность: 01:30:34
Перевод: Дублированный + оригинал
Файл
Кодек: MPEG-4 AVC
Качество: BDRip 1080p
Видео: MPEG-4 AVC, 7350 Кбит/с, 1920x800, 23.976 кадр/с
Аудио #1: Русский (АС3, 6 ch, 448 Кбит/с) / Дублированный (ТК Кинопоказ HD-1)
Аудио #2: Английский (DTS, 6 ch, 1510 Кбит/с)
Семпл

MI

x264 [info]: frame I:845 Avg QP:14.49 size:216581
x264 [info]: frame P:24224 Avg QP:17.78 size: 78535
x264 [info]: frame B:105223 Avg QP:19.71 size: 27588
Complete name : Horoshie.ludi.2014.x264.BDRip.(1080p)-MediaClub.mkv
Format : Matroska
Format version : Version 4 / Version 2
File size : 5.89 GiB
Duration : 1h 30mn
Overall bit rate : 9 303 Kbps
Movie name : = MediaClub = rip by Painter
Encoded date : UTC 2015-06-15 15:07:04
Writing application : mkvmerge v7.8.0 ('River Man') 32bit built on Mar 27 2015 16:18:02
Writing library : libebml v1.3.1 + libmatroska v1.4.2
DURATION : 01:30:34.230000000
NUMBER_OF_FRAMES : 509459
NUMBER_OF_BYTES : 1025031596
_STATISTICS_WRITING_APP : mkvmerge v7.8.0 ('River Man') 32bit built on Mar 27 2015 16:18:02
_STATISTICS_WRITING_DATE_UTC : 2015-06-15 15:07:04
_STATISTICS_TAGS : BPS DURATION NUMBER_OF_FRAMES NUMBER_OF_BYTES
Video
ID : 1
Format : AVC
Format/Info : Advanced Video Codec
Format profile : High@L4.1
Format settings, CABAC : Yes
Format settings, ReFrames : 5 frames
Codec ID : V_MPEG4/ISO/AVC
Duration : 1h 30mn
Bit rate : 7 350 Kbps
Width : 1 920 pixels
Height : 800 pixels
Display aspect ratio : 2.40:1
Frame rate mode : Constant
Frame rate : 23.976 fps
Color space : YUV
Chroma subsampling : 4:2:0
Bit depth : 8 bits
Scan type : Progressive
Bits/(Pixel*Frame) : 0.200
Stream size : 4.53 GiB (77%)
Writing library : x264 core 144 r2525 40bb568
Encoding settings : cabac=1 / ref=5 / deblock=1:-3:-3 / analyse=0x3:0x133 / me=umh / subme=11 / psy=1 / psy_rd=1.00:0.20 / mixed_ref=1 / me_range=48 / chroma_me=1 / trellis=2 / 8x8dct=1 / cqm=0 / deadzone=21,11 / fast_pskip=0 / chroma_qp_offset=-3 / threads=6 / lookahead_threads=1 / sliced_threads=0 / nr=0 / decimate=0 / interlaced=0 / bluray_compat=0 / constrained_intra=0 / bframes=10 / b_pyramid=2 / b_adapt=2 / b_bias=0 / direct=3 / weightb=1 / open_gop=0 / weightp=2 / keyint=240 / keyint_min=23 / scenecut=40 / intra_refresh=0 / rc=2pass / mbtree=0 / bitrate=7350 / ratetol=1.0 / qcomp=0.60 / qpmin=0 / qpmax=69 / qpstep=4 / cplxblur=20.0 / qblur=0.5 / ip_ratio=1.40 / pb_ratio=1.30 / aq=3:0.80
Language : English
Default : Yes
Forced : No
DURATION : 01:30:34.271000000
NUMBER_OF_FRAMES : 130292
NUMBER_OF_BYTES : 4988282060
_STATISTICS_WRITING_APP : mkvmerge v7.8.0 ('River Man') 32bit built on Mar 27 2015 16:18:02
_STATISTICS_WRITING_DATE_UTC : 2015-06-15 15:07:04
_STATISTICS_TAGS : BPS DURATION NUMBER_OF_FRAMES NUMBER_OF_BYTES
Audio #1
ID : 2
Format : AC-3
Format/Info : Audio Coding 3
Mode extension : CM (complete main)
Format settings, Endianness : Big
Codec ID : A_AC3
Duration : 1h 30mn
Bit rate mode : Constant
Bit rate : 448 Kbps
Channel(s) : 6 channels
Channel positions : Front: L C R, Side: L R, LFE
Sampling rate : 48.0 KHz
Bit depth : 16 bits
Compression mode : Lossy
Stream size : 290 MiB (5%)
Language : Russian
Default : Yes
Forced : No
Audio #2
ID : 3
Format : DTS
Format/Info : Digital Theater Systems
Mode : 16
Format settings, Endianness : Big
Codec ID : A_DTS
Duration : 1h 30mn
Bit rate mode : Constant
Bit rate : 1 509 Kbps
Channel(s) : 6 channels
Channel positions : Front: L C R, Side: L R, LFE
Sampling rate : 48.0 KHz
Bit depth : 24 bits
Compression mode : Lossy
Stream size : 978 MiB (16%)
Language : English
Default : No
Forced : No
Menu
00:00:00.000 : :Chapter 01
00:06:21.881 : :Chapter 02
00:13:11.415 : :Chapter 03
00:19:34.882 : :Chapter 04
00:26:35.635 : :Chapter 05
00:34:10.673 : :Chapter 06
00:43:39.908 : :Chapter 07
00:52:26.560 : :Chapter 08
00:59:51.921 : :Chapter 09
01:08:15.424 : :Chapter 10
01:16:25.455 : :Chapter 11
01:22:45.877 : :Chapter 12
01:30:33.719 : :Chapter 13

Скриншоты

За исходник спасибо BlueBird
[Профиль] [ЛС]
Показать сообщения:    

Текущее время: Сегодня 00:38

Часовой пояс: GMT



Вы не можете начинать темы
Вы не можете отвечать на сообщения
Вы не можете редактировать свои сообщения
Вы не можете удалять свои сообщения
Вы не можете голосовать в опросах
Вы не можете прикреплять файлы к сообщениям
Вы не можете скачивать файлы